Рожденный четвертого июля / Born on the Fourth of July (Оливер Стоун / Oliver Stone) [1989, США, драма, военный, биография, BDRip] AVO (Василий Горчаков) (вставки Андрей Гаврилов)

Reply to topic
DL-List and Torrent activity
Size:  2.06 GB   |    Registered:  3 years 3 months   |    Completed:  16 times

Seeder not seen: 3 years 3 months

 
   
 
 
Author Message

erzsebet.org ®

Longevity: 3 years 2 months

Posts: 47596

Post 02-Dec-2017 16:09

[Quote]

Рожденный четвертого июля / Born on the Fourth of July
Страна: США
Жанр: драма, военный, биография
Год выпуска: 1989
Продолжительность: 02:24:08
Перевод: Авторский (одноголосый закадровый) Василий Горчаков (вставки Андрей Гаврилов)
Субтитры: нет
Режиссер: Оливер Стоун / Oliver Stone
В ролях: Том Круз, Рэймонд Дж. Бэрри, Кэролайн Кэва, Джош Эванс, Джэми Талисман, Энн Бобби, Саманта Ларкин, Том Беренджер, Фрэнк Уэйли
Описание: Главный герой фильма Рон Ковик вырос в семье католиков, где его воспитали настоящим патриотом. Будучи ещё студентом, он с удовольствием решился защищать интересы Америки вдали от своей родины во Вьетнаме. Рон уехал на войну. Во время своей армейской жизни главный герой сталкивается с настоящей трагедией. Он увидел и почувствовал ужас войны, убийства себе подобных, а также получил серьёзное ранение и даже застрелил по неосторожности своего боевого товарища. После возвращения к мирной жизни в Америке, оставшийся инвалидом после Вьетнама Рон вдруг понимает, что правительство его родины со своими сомнительными амбициями просто подставило его....
Доп. информация: Дорога синхронизирована Нордер при помощи Sony Vegas . За предоставленную дорожку благодарим - AMIRKHAN NOIR из Баку
Сэмпл: https://yadi.sk/i/5VKgQdMH3NdMbi
Качество видео: BDRip (Исходник BDRemux 1080p)
Формат видео: AVI
Видео: XviD 73, 720x304, (2,35:1), 23,976 fps, 1844 Кбит/с, 8 бит, 0.35 bit/pixel
Аудио: Русский (АС3, 2 ch (Front: L R), 48,0 KHz, 192 Kbps)

MediaInfo

Общее
Полное имя : D:\Видеофильмы\В и д е о\Рожденный четвертого июля (драма, военный, биография 1989 год).avi
Формат : AVI
Формат/Информация : Audio Video Interleave
Профиль формата : OpenDML
Размер файла : 2,06 Гбайт
Продолжительность : 2 ч. 24 м.
Общий поток : 2048 Кбит/сек
Программа кодирования : VirtualDubMod 1.5.10.3 | www.virtualdub-fr.org || (build 2550/release)
Библиотека кодирования : VirtualDubMod build 2550/release
Видео
Идентификатор : 0
Формат : MPEG-4 Visual
Профиль формата : Advanced [email protected]
Параметр BVOP формата : 2
Параметр QPel формата : Нет
Параметр GMC формата : Без точки перехода
Параметр матрицы формата : Выборочная
Идентификатор кодека : XVID
Идентификатор кодека/Подсказка : XviD
Продолжительность : 2 ч. 24 м.
Битрейт : 1844 Кбит/сек
Ширина : 720 пикселей
Высота : 304 пикселя
Соотношение сторон : 2,35:1
Частота кадров : 23,976 (23976/1000) кадра/сек
Цветовое пространство : YUV
Субдискретизация насыщенности : 4:2:0
Битовая глубина : 8 бит
Тип развёртки : Прогрессивная
Метод сжатия : С потерями
Бит/(Пиксели*Кадры) : 0.351
Размер потока : 1,86 Гбайт (90%)
Библиотека кодирования : XviD 73
Аудио
Идентификатор : 1
Формат : AC-3
Формат/Информация : Audio Coding 3
Расширение режима : CM (complete main)
Параметр Endianness формата : Big
Идентификатор кодека : 2000
Продолжительность : 2 ч. 24 м.
Вид битрейта : Постоянный
Битрейт : 192 Кбит/сек
Каналы : 2 канала
Расположение каналов : Front: L R
Частота : 48,0 КГц
Частота кадров : 31,250 кадров/сек (1536 spf)
Метод сжатия : С потерями
Размер потока : 198 Мбайт (9%)
Выравнивание : Разделение по промежуткам
Продолжительность промежутка : 42 мс. (1,00 видеокадр)
Время предзагрузки промежутка : 500 мс.

Скриншот c названием фильма

Скриншоты

[erzsebet.pl].t180.torrent
Torrent: Registered [ 2017-12-02 16:10 ] · C274269C29EBE353F20282E82423E3155DDDF48C

Download .torrent

Download

11 KB

Status: checked
Completed: 16 times
Size: 2.06 GB
terms.php
[Profile] [PM]
Display posts:    
Reply to topic

Current time is: 04-Mar 21:53

All times are UTC ± 0



You cannot post new topics in this forum
You cannot reply to topics in this forum
You cannot edit your posts in this forum
You cannot delete your posts in this forum
You cannot vote in polls in this forum
You cannot attach files in this forum
You can download files in this forum