Не могу не петь / Can't Help Singing (Фрэнк Райан / Frank Ryan) [1944, США, мюзикл, вестерн, DVDRip] MVO (ГТРК "Культура") + Original Eng

Reply to topic
DL-List and Torrent activity
Size:  1.46 GB   |    Registered:  3 years 3 months   |    Completed:  16 times

Seeder not seen: 3 years 3 months

 
   
 
 
Author Message

erzsebet.org ®

Longevity: 3 years 2 months

Posts: 47596

Post 02-Dec-2017 16:17

[Quote]

Не могу не петь / Can't Help Singing
Страна: США
Жанр: мюзикл, вестерн
Год выпуска: 1944
Продолжительность: 01:30:28
Перевод: Профессиональный (многоголосый закадровый) ГТРК "Культура"
Субтитры: нет
Оригинальная аудиодорожка: английский
Режиссер: Фрэнк Райан / Frank Ryan
В ролях: Дина Дурбин, Роберт Пейдж, Аким Тамирофф, Дэвид Брюс, Леонид Кински, Джун Винсент, Рэй Коллинз, Эндрю Томбс, Томас Гомес, Клара Блэндик
Описание: Вашингтон, начало XIX века. Красавица Кэролайн профессиональная певица, дочь сенатора Мартина Фроста. Она влюблена в лейтенанта Роберта Лэтхэма, возглавившего первый обоз с золотом из Калифорнии. Девушка горит желанием поскорее выйти замуж, но её отец против этого брака и чтобы чувство дочери остыло, высылает её возлюбленного обратно в Калифорнию. Девушка не стала мириться с произволом родителя и бежит в Питсбург…
Сэмпл: http://multi-up.com/1171265
Качество видео: DVDRip
Формат видео: AVI
Видео: MPEG4, XviD, 656x480 (4:3), 23.976 fps, 1 917 Kbps (0.254 bit/pixel)
Аудио: AC-3, 48.0 KHz, 2 ch, 192 Kbps, CBR - русский
Аудио 2: AC-3, 48.0 KHz, 2 ch, 192 Kbps, CBR - английский

MediaInfo

бщее
Полное имя : M:\Не могу не петь.avi
Формат : AVI
Формат/Информация : Audio Video Interleave
Размер файла : 1,46 Гбайт
Продолжительность : 1 ч. 30 м.
Общий поток : 2315 Кбит/сек
Название фильма : Не могу не петь / Can't Help Singing (1944)
Программа кодирования : VirtualDubMod 1.5.10.2 (build 2540/release)
Библиотека кодирования : VirtualDubMod build 2540/release
Авторское право : miha2154
Видео
Идентификатор : 0
Формат : MPEG-4 Visual
Профиль формата : Advanced [email protected]
Параметр BVOP формата : 1
Параметр QPel формата : Нет
Параметр GMC формата : Без точки перехода
Параметр матрицы формата : Выборочная
Идентификатор кодека : XVID
Идентификатор кодека/Подсказка : XviD
Продолжительность : 1 ч. 30 м.
Битрейт : 1917 Кбит/сек
Ширина : 656 пикселей
Высота : 480 пикселей
Соотношение сторон : 4:3
Частота кадров : 23,976 (23976/1000) кадра/сек
Цветовое пространство : YUV
Субдискретизация насыщенности : 4:2:0
Битовая глубина : 8 бит
Тип развёртки : Прогрессивная
Метод сжатия : С потерями
Бит/(Пиксели*Кадры) : 0.254
Размер потока : 1,21 Гбайт (83%)
Библиотека кодирования : XviD 65
Аудио #1
Идентификатор : 1
Формат : AC-3
Формат/Информация : Audio Coding 3
Расширение режима : CM (complete main)
Параметр Endianness формата : Big
Идентификатор кодека : 2000
Продолжительность : 1 ч. 30 м.
Вид битрейта : Постоянный
Битрейт : 192 Кбит/сек
Каналы : 2 канала
Расположение каналов : Front: L R
Частота : 48,0 КГц
Частота кадров : 31,250 кадров/сек (1536 spf)
Метод сжатия : С потерями
Размер потока : 124 Мбайт (8%)
Выравнивание : Разделение по промежуткам
Продолжительность промежутка : 42 мс. (1,00 видеокадр)
Время предзагрузки промежутка : 500 мс.
Заголовок : Профессиональный (многоголосый закадровый) Культура
Аудио #2
Идентификатор : 2
Формат : AC-3
Формат/Информация : Audio Coding 3
Расширение режима : CM (complete main)
Параметр Endianness формата : Big
Идентификатор кодека : 2000
Продолжительность : 1 ч. 30 м.
Вид битрейта : Постоянный
Битрейт : 192 Кбит/сек
Каналы : 2 канала
Расположение каналов : Front: L R
Частота : 48,0 КГц
Частота кадров : 31,250 кадров/сек (1536 spf)
Метод сжатия : С потерями
Размер потока : 124 Мбайт (8%)
Выравнивание : Разделение по промежуткам
Продолжительность промежутка : 42 мс. (1,00 видеокадр)
Время предзагрузки промежутка : 500 мс.
Заголовок : Английский

Скриншоты


[erzsebet.pl].t185.torrent
Torrent: Registered [ 2017-12-02 16:18 ] · 23EA45AF7637AD9E1F41DB7A2DC3D508A0FAB499

Download .torrent

Download

15 KB

Status: checked
Completed: 16 times
Size: 1.46 GB
terms.php
[Profile] [PM]
Display posts:    
Reply to topic

Current time is: 07-Mar 20:58

All times are UTC ± 0



You cannot post new topics in this forum
You cannot reply to topics in this forum
You cannot edit your posts in this forum
You cannot delete your posts in this forum
You cannot vote in polls in this forum
You cannot attach files in this forum
You can download files in this forum