Тропы славы / Paths of Glory (Стэнли Кубрик / Stanley Kubrick) [1957, США, военная драма, история, BDRip] VO (Александр Дорошевич)

DL-List and Torrent activity
Size:  1.45 GB   |    Registered:  2 years 9 months   |    Completed:  16 times
Seeders:  2   Leechers:  1   Show peers in full details
 
   
 
 

erzsebet.org ®

Longevity:
2 years 9 months
Posts:
47596

[Quote] 

Тропы славы / Paths of Glory
Страна: США
Жанр: военная драма, история
Год выпуска: 1957
Продолжительность: 01:28:21
Перевод: Одноголосый закадровый Александр Дорошевич
Субтитры: нет
Режиссер: Стэнли Кубрик / Stanley Kubrick
В ролях: Кирк Дуглас, Ральф Микер, Адолф Менжу, Джордж Макреди, Вейн Моррис, Ричард Андерсон, Джо Туркел, Кристиана Кубрик, Джерри Хауснер
Описание: Полковник Дэкс командует пехотным полком французской армии. Уже два года союзники пытаются переломить ход войны с немцами. Начальник корпуса генерал Брулард приказывает дивизионному генералу Миро атаковать неприступную вражескую позицию, прозванную Муравьиным холмом. Провал операции был очевиден изначально, но когда атака закончилась полной неудачей, генерал приказал судить и расстрелять за трусость троих человек. Полковник Дэкс тщетно пытался защитить солдат, выбранных произвольно. Они отдали свои жизни, чтобы прикрыть глупость и амбиции начальства...
Доп. информация: Дорога синхронизирована Нордер при помощи Sony Vegas . За предоставленную дорожку благодарим - AMIRKHAN NOIR из Баку
Сэмпл: http://multi-up.com/1171239
Качество видео: BDRip (Исходник BDRemux 1080p)
Формат видео: AVI
Видео: XviD 73, 720x432, (5:3), 23,976 fps, 2144 Кбит/с, 8 бит, 0.29 bit/pixel
Аудио: Русский (АС3, 2 ch (Front: L R), 48,0 KHz, 192 Kbps)

MediaInfo

Общее
Полное имя : D:\Видеофильмы\В и д е о\Тропы славы (военная драма 1957 год).avi
Формат : AVI
Формат/Информация : Audio Video Interleave
Размер файла : 1,45 Гбайт
Продолжительность : 1 ч. 28 м.
Общий поток : 2346 Кбит/сек
Программа кодирования : VirtualDubMod 1.5.10.3 | www.virtualdub-fr.org || (build 2550/release)
Библиотека кодирования : VirtualDubMod build 2550/release
Видео
Идентификатор : 0
Формат : MPEG-4 Visual
Профиль формата : Advanced [email protected]
Параметр BVOP формата : 2
Параметр QPel формата : Нет
Параметр GMC формата : Без точки перехода
Параметр матрицы формата : Выборочная
Идентификатор кодека : XVID
Идентификатор кодека/Подсказка : XviD
Продолжительность : 1 ч. 28 м.
Битрейт : 2144 Кбит/сек
Ширина : 720 пикселей
Высота : 432 пикселя
Соотношение сторон : 5:3
Частота кадров : 23,976 (23976/1000) кадра/сек
Цветовое пространство : YUV
Субдискретизация насыщенности : 4:2:0
Битовая глубина : 8 бит
Тип развёртки : Прогрессивная
Метод сжатия : С потерями
Бит/(Пиксели*Кадры) : 0.288
Размер потока : 1,32 Гбайт (91%)
Библиотека кодирования : XviD 73
Аудио
Идентификатор : 1
Формат : AC-3
Формат/Информация : Audio Coding 3
Расширение режима : CM (complete main)
Параметр Endianness формата : Big
Идентификатор кодека : 2000
Продолжительность : 1 ч. 28 м.
Вид битрейта : Постоянный
Битрейт : 192 Кбит/сек
Каналы : 2 канала
Расположение каналов : Front: L R
Частота : 48,0 КГц
Частота кадров : 31,250 кадров/сек (1536 spf)
Метод сжатия : С потерями
Размер потока : 121 Мбайт (8%)
Выравнивание : Разделение по промежуткам
Продолжительность промежутка : 42 мс. (1,00 видеокадр)
Время предзагрузки промежутка : 500 мс.

Скриншот c названием фильма

Скриншоты

If your ratio falls below 0.3, you will not be able to download Torrents! More about the rating.

[erzsebet.pl].t186.torrent
Torrent: Registered   [ 2017-12-02 16:18 ]

Download .torrent

Download

15 KB

Status: checked
Completed: 16 times
Size: 1.45 GB
terms.php

#1

02-Dec-2017 16:17

[Profile]  [PM] 
Display posts:    

You cannot post new topics in this forum
You cannot reply to topics in this forum
You cannot edit your posts in this forum
You cannot delete your posts in this forum
You cannot vote in polls in this forum
You cannot attach files in this forum
You can download files in this forum
User agreement
For copyright holders
Advertise on this site

Скачайте на халяву через торрент на трекере erzsebet.pl

!ATTENTION!
The site does not give electronic versions of products, and is engaged only in a collecting and cataloguing of the references sent and published at a forum by our readers. If you are the legal owner of any submitted material and do not wish that the reference to it was in our catalogue, contact us and we shall immediately remove her. Files for an exchange on tracker are given by users of a site, and the administration does not bear the responsibility for their maintenance. The request to not fill in the files protected by copyrights, and also files of the illegal maintenance!