Машина времени / The Time Machine (Джордж Пэл / George Pal) [1960, США, фантастика, VHSRip-AVC] [Fullscreen] MVO (Мост-Видео)

Reply to topic
DL-List and Torrent activity
Size:  2.2 GB   |    Registered:  3 years 3 months   |    Completed:  16 times

Seeder not seen: 3 years 3 months

 
   
 
 
Author Message

erzsebet.org ®

Longevity: 3 years 2 months

Posts: 47596

Post 02-Dec-2017 16:17

[Quote]

Машина времени / The Time Machine / Fullscreen
Страна: США
Жанр: фантастика
Год выпуска: 1960
Продолжительность: 01:38:25
Перевод: Профессиональный (многоголосый закадровый) Мост-Видео
Субтитры: нет
Оригинальная аудиодорожка: нет
Режиссер: Джордж Пэл / George Pal
В ролях: Род Тейлор, Алан Янг, Ивет Мимо, Себастьян Кабот, Том Хелмор, Уит Бисселл, Дорис Ллойд...
Описание: 1899 год. Джордж накануне нового тысячелетия демонстрирует друзьям свое изобретение — машину времени. Его рассказ о прошлом и будущем коллеги встречают скептически. Они не верят в путешествие во времени.
Когда друзья расходятся по домам отмечать новый год, Джордж садится за рычаги своего изобретения, чтобы подтвердить свою теорию. Так начинается его путешествие, которое окажется приключением целой жизни. Он переносит его из 1899 года во времена войн 20 столетия, а потом — в 802701 год. В этом отдаленном времени пассивным жителям земли Элоям грозит мрачное будущее, поскольку они поклоняются подземным существам с горящими глазами — Морлокам.
Будущее может спасти только незнакомец из прошлого.
Награды:
Оскар, 1961 год
Победитель: Лучшие спецэффекты
Доп. информация:
Оцифровка лицензионной VHS из собственной коллекции.
Fullscreen!
Сэмпл: http://sendfile.su/1367377
Качество видео: VHSRip
Формат видео: MP4-AVC
Видео: AVC, 720х576, 5:4, 25,000 кадров/сек, 3000 Кбит/сек
Аудио: AAC, 64,0 КГц, 192 Кбит/сек, 2.0 (псевдостерео)

MediaInfo

General
Complete name : K:\torrents\The Time Machine\The Time Machine.mp4
Format : MPEG-4
Format profile : Base Media
Codec ID : isom (isom/iso2/avc1/mp41)
File size : 2.20 GiB
Duration : 1 h 38 min
Overall bit rate : 3 196 kb/s
Writing application : Lavf57.25.100
Video
ID : 1
Format : AVC
Format/Info : Advanced Video Codec
Format profile : [email protected]
Format settings : 1 Ref Frames
Format settings, CABAC : No
Format settings, RefFrames : 1 frame
Format settings, GOP : M=1, N=50
Codec ID : avc1
Codec ID/Info : Advanced Video Coding
Duration : 1 h 38 min
Bit rate : 3 000 kb/s
Width : 720 pixels
Height : 576 pixels
Display aspect ratio : 5:4
Frame rate mode : Constant
Frame rate : 25.000 FPS
Standard : PAL
Color space : YUV
Chroma subsampling : 4:2:0
Bit depth : 8 bits
Scan type : Progressive
Bits/(Pixel*Frame) : 0.289
Stream size : 2.06 GiB (94%)
Audio
ID : 2
Format : AAC
Format/Info : Advanced Audio Codec
Format profile : LTP
Codec ID : mp4a-40-4
Duration : 1 h 38 min
Bit rate mode : Constant
Bit rate : 192 kb/s
Channel(s) : 2 channels
Channel(s)_Original : 3 channels
Channel positions : Front: L C R
Sampling rate : 64.0 kHz
Frame rate : 62.500 FPS (1024 SPF)
Compression mode : Lossy
Stream size : 133 MiB (6%)
Default : Yes
Alternate group : 1

Скриншот c названием фильма

[erzsebet.pl].t187.torrent
Torrent: Registered [ 2017-12-02 16:18 ] · F7BAD180B95261EB1670D69D17E061B2F5C4A6E1

Download .torrent

Download

11 KB

Status: checked
Completed: 16 times
Size: 2.2 GB
terms.php
[Profile] [PM]
Display posts:    
Reply to topic

Current time is: 03-Mar 17:17

All times are UTC ± 0



You cannot post new topics in this forum
You cannot reply to topics in this forum
You cannot edit your posts in this forum
You cannot delete your posts in this forum
You cannot vote in polls in this forum
You cannot attach files in this forum
You can download files in this forum