Вор, который пришел на обед / Вор, зашедший пообедать / The Thief Who Came to Dinner (Бад Йоркин / Bud Yorkin) [1973, США, авантюрная комедия, экранизация, DVDRip] MVO (студия "Нота") + Original Eng

DL-List and Torrent activity
Size:  1.42 GB   |    Registered:  2 years 9 months   |    Completed:  16 times
Seeders:  8  
 
   
 
 

erzsebet.org ®

Longevity:
2 years 9 months
Posts:
47596

[Quote] 

Вор, который пришел на обед / Вор, зашедший пообедать / The Thief Who Came to Dinner Страна: США
Жанр: авантюрная комедия, экранизация
Год выпуска: 1973
Продолжительность: 01:40:00
Перевод: Профессиональный (многоголосый закадровый) студия "Нота" 2000 год
Текст читали: Андрей Ярославцев, Людмила Ильина, Дмитрий Полонский
Субтитры: нет
Оригинальная аудиодорожка: английский
Режиссер: Бад Йоркин / Bud Yorkin
В ролях: Райан О’Нил, Жаклин Биссет, Уоррен Оутс, Джилл Клейбёрг, Чарльз Чоффи, Нед Битти, Остин Пендлтон, Грегори Сьерра, Майкл Мерфи, Джон Хиллерман, Алан Оппенхаймер, Маргарет Фэйрчайлд, Джек Мэннинг, Ричард О’Брайэн, Джордж Морфоген, Джим Антонио, Арми Арчерд, Джим Бэйкон, Джек Клиффорд Донахью, Джек Райли, Ноубл Уиллингэм
Описание: По мотивам романа Терренс Лоре Смит. Обаятельный вор Бакстер, в прошлом талантливый программист, специализирующийся на краже драгоценностей из богатых домов (Райан О'Нил), шантажирует проштрафившегося магната и с его помощью входит в круг богачей. На одном из приемов он знакомится с Лаурой (Жаклин Биссет). Она увлекается Бакстером и с удовольствием помогает ему во всех его авантюрах. Каждое свое ограбление Бакстер подписывает шахматным ходом и вскоре становится известным во всем городе "шахматным вором". Но однажды происходит осечка...
Доп. информация: Рип найден в сети.
Сэмпл: http://multi-up.com/1171027
Качество видео: DVDRip
Формат видео: AVI
Видео: XviD, 704x384 (1.85:1), 23.976 fps, 1623 kbps avg
Аудио: Russian AC3 Dolby Digital, 48 kHz, 2/0 (L,R) ch, 192.00 kbps avg
Аудио 2: English AC3 Dolby Digital, 48 kHz, 2/0 (L,R) ch, 192.00 kbps avg

MediaInfo

General
Complete name : D:\Вор, который пришел на обед\The.Thief.Who.Came.To.Dinner.1973.DVDRip.MVO.avi
Format : AVI
Format/Info : Audio Video Interleave
Format profile : OpenDML
File size : 1.42 GiB
Duration : 1 h 40 min
Overall bit rate : 2 026 kb/s
Video
ID : 0
Format : MPEG-4 Visual
Format profile : Advanced [email protected]
Format settings, BVOP : 1
Format settings, QPel : No
Format settings, GMC : No warppoints
Format settings, Matrix : Custom
Codec ID : XVID
Codec ID/Hint : XviD
Duration : 1 h 40 min
Bit rate : 1 623 kb/s
Width : 704 pixels
Height : 384 pixels
Display aspect ratio : 1.85:1
Frame rate : 23.976 (24000/1001) FPS
Original frame rate : 23.976 (23976/1000) FPS
Color space : YUV
Chroma subsampling : 4:2:0
Bit depth : 8 bits
Scan type : Progressive
Compression mode : Lossy
Bits/(Pixel*Frame) : 0.250
Stream size : 1.13 GiB (80%)
Writing library : XviD 73
Audio #1
ID : 1
Format : AC-3
Format/Info : Audio Coding 3
Format settings, Endianness : Big
Codec ID : 2000
Duration : 1 h 40 min
Bit rate mode : Constant
Bit rate : 192 kb/s
Channel(s) : 2 channels
Channel positions : Front: L R
Sampling rate : 48.0 kHz
Frame rate : 31.250 FPS (1536 SPF)
Bit depth : 16 bits
Compression mode : Lossy
Stream size : 137 MiB (9%)
Alignment : Aligned on interleaves
Interleave, duration : 32 ms (0.77 video frame)
Service kind : Complete Main
Audio #2
ID : 2
Format : AC-3
Format/Info : Audio Coding 3
Format settings, Endianness : Big
Codec ID : 2000
Duration : 1 h 40 min
Bit rate mode : Constant
Bit rate : 192 kb/s
Channel(s) : 2 channels
Channel positions : Front: L R
Sampling rate : 48.0 kHz
Frame rate : 31.250 FPS (1536 SPF)
Bit depth : 16 bits
Compression mode : Lossy
Stream size : 137 MiB (9%)
Alignment : Aligned on interleaves
Interleave, duration : 32 ms (0.77 video frame)
Service kind : Complete Main

Скриншоты

If your ratio falls below 0.3, you will not be able to download Torrents! More about the rating.

[erzsebet.pl].t188.torrent
Torrent: Registered   [ 2017-12-02 16:18 ]

Download .torrent

Download

15 KB

Status: checked
Completed: 16 times
Size: 1.42 GB
terms.php

#1

02-Dec-2017 16:17

[Profile]  [PM] 
Display posts:    

You cannot post new topics in this forum
You cannot reply to topics in this forum
You cannot edit your posts in this forum
You cannot delete your posts in this forum
You cannot vote in polls in this forum
You cannot attach files in this forum
You can download files in this forum
User agreement
For copyright holders
Advertise on this site

Скачайте на халяву через торрент на трекере erzsebet.pl

!ATTENTION!
The site does not give electronic versions of products, and is engaged only in a collecting and cataloguing of the references sent and published at a forum by our readers. If you are the legal owner of any submitted material and do not wish that the reference to it was in our catalogue, contact us and we shall immediately remove her. Files for an exchange on tracker are given by users of a site, and the administration does not bear the responsibility for their maintenance. The request to not fill in the files protected by copyrights, and also files of the illegal maintenance!