Дом темных теней / House of Dark Shadows (Дэн Кертис / Dan Curtis) [1970, США, ужасы, VHSRip-AVC] [Fullscreen] DVO (Мост-Видео)

Reply to topic
DL-List and Torrent activity
Size:  2.16 GB   |    Registered:  3 years 3 months   |    Completed:  16 times

Seeder not seen: 3 years 3 months

 
   
 
 
Author Message

erzsebet.org ®

Longevity: 3 years 2 months

Posts: 47596

Post 02-Dec-2017 16:17

[Quote]

Дом темных теней / House of Dark Shadows / Fullscreen
Страна: США
Жанр: ужасы
Год выпуска: 1970
Продолжительность: 01:36:50
Перевод: Профессиональный (двухголосый закадровый) Мост-Видео
Субтитры: нет
Оригинальная аудиодорожка: нет
Режиссер: Дэн Кертис / Dan Curtis
В ролях: Джонатан Фрид, Грэйсон Холл, Кэтрин Ли Скотт, Роджер Дэвис, Нэнси Баррет, Джон Карлен, Тэйер Дэвид, Луис Эдмондс, Дон Бриско, Дэвид Хенеси, Деннис Патрик, Джоан Беннетт...
Описание: Очнувшись в своём склепе от векового сна, вампир Барнаба Коллинз начинает наводить ужас на окрестных девушек. Одна из них, доктор Джулия Хоффман, решает помочь Коллинзу и попытаться излечить его от вампиризма. Барнаба же тем временем встречает некую Мэгги и начинает считать её реинкарнацией своей прежней возлюбленной.
Доп. информация:
Оцифровка лицензионной VHS из собственной коллекции.
Fullscreen!
Сэмпл: http://sendfile.su/1366822
Качество видео: VHSRip-AVC
Формат видео: MP4
Видео: AVC, 720х576, 5:4, 25,000 кадров/сек, 3000 Кбит/сек
Аудио: AAC, 64,0 КГц, 192 Кбит/сек, 2.0 (псевдостерео)

MediaInfo

General
Complete name : K:\torrents\House of Dark Shadows\House of Dark Shadows.mp4
Format : MPEG-4
Format profile : Base Media
Codec ID : isom (isom/iso2/avc1/mp41)
File size : 2.16 GiB
Duration : 1 h 36 min
Overall bit rate : 3 196 kb/s
Writing application : Lavf57.25.100
Video
ID : 1
Format : AVC
Format/Info : Advanced Video Codec
Format profile : [email protected]
Format settings : 1 Ref Frames
Format settings, CABAC : No
Format settings, RefFrames : 1 frame
Format settings, GOP : M=1, N=50
Codec ID : avc1
Codec ID/Info : Advanced Video Coding
Duration : 1 h 36 min
Bit rate : 3 000 kb/s
Width : 720 pixels
Height : 576 pixels
Display aspect ratio : 5:4
Frame rate mode : Constant
Frame rate : 25.000 FPS
Standard : PAL
Color space : YUV
Chroma subsampling : 4:2:0
Bit depth : 8 bits
Scan type : Progressive
Bits/(Pixel*Frame) : 0.289
Stream size : 2.03 GiB (94%)
Audio
ID : 2
Format : AAC
Format/Info : Advanced Audio Codec
Format profile : LTP
Codec ID : mp4a-40-4
Duration : 1 h 36 min
Bit rate mode : Constant
Bit rate : 192 kb/s
Channel(s) : 2 channels
Channel(s)_Original : 3 channels
Channel positions : Front: L C R
Sampling rate : 64.0 kHz
Frame rate : 62.500 FPS (1024 SPF)
Compression mode : Lossy
Stream size : 131 MiB (6%)
Default : Yes
Alternate group : 1

Скриншот c названием фильма

[erzsebet.pl].t190.torrent
Torrent: Registered [ 2017-12-02 16:18 ] · 99D822824BF366D79D49B746D2FEB4C29BDAE1B9

Download .torrent

Download

11 KB

Status: checked
Completed: 16 times
Size: 2.16 GB
terms.php
[Profile] [PM]
Display posts:    
Reply to topic

Current time is: 03-Mar 18:07

All times are UTC ± 0



You cannot post new topics in this forum
You cannot reply to topics in this forum
You cannot edit your posts in this forum
You cannot delete your posts in this forum
You cannot vote in polls in this forum
You cannot attach files in this forum
You can download files in this forum