Захват в Северном море / North Sea Hijack / Ffolkes (Эндрю В. МакЛаглен / Andrew V. McLaglen) [1979, Великобритания, боевик, приключения, триллер, BDRip] DVO

Reply to topic
DL-List and Torrent activity
Size:  1.45 GB   |    Registered:  3 years 3 months   |    Completed:  16 times

Seeder not seen: 3 years 3 months

 
   
 
 
Author Message

erzsebet.org ®

Longevity: 3 years 2 months

Posts: 47596

Post 02-Dec-2017 16:17

[Quote]

Захват в Северном море / North Sea Hijack / Ffolkes
Страна: Великобритания
Жанр: боевик, приключения, триллер
Год выпуска: 1979
Продолжительность: 01:39:33
Перевод: Профессиональный (двухголосый закадровый)
Субтитры: нет
Режиссер: Эндрю В. МакЛаглен / Andrew V. McLaglen
В ролях: Роджер Мур, Джеймс Мейсон, Энтони Перкинс, Майкл Паркс, Дэвид Хедисон, Джек Уотсон, Джордж Бейкер, Джереми Клайд, Дэвид Вуд
Описание: Известный и безжалостный террорист Крамер вместе со своими напарниками захватывает две нефтяные бурильные вышки в Северном море и требует у британского правительства огромный выкуп в 25 миллионов долларов, в противном случае угрожая взорвать их. У правительства есть только сутки, чтобы выполнить эти требования. На помощь военным приходит отставной военный офицер Руфус вместе со своей анти-террористической командой. Риторический вопрос: сможет ли Руфус обезвредить террористов до истечения срока?…
Сэмпл: http://multi-up.com/1170849
Качество видео: BDRip (Исходник North_Sea_Hijack_1980_REMUX / NNM-Club)
Формат видео: AVI
Видео: XviD 73, 720x384, (1,85:1), 23,976 fps, 1885 Кбит/с, 8 бит, 0.28 bit/pixel
Аудио: Русский (АС3, 2 ch (Front: L R), 48,0 KHz, 192 Kbps)

MediaInfo

Общее
Полное имя : D:\Видеофильмы\В и д е о\Захват в Северном море (боевик, приключения, триллер 1979 год).avi
Формат : AVI
Формат/Информация : Audio Video Interleave
Размер файла : 1,45 Гбайт
Продолжительность : 1 ч. 39 м.
Общий поток : 2086 Кбит/сек
Программа кодирования : VirtualDubMod 1.5.10.3 | www.virtualdub-fr.org || (build 2550/release)
Библиотека кодирования : VirtualDubMod build 2550/release
Видео
Идентификатор : 0
Формат : MPEG-4 Visual
Профиль формата : Advanced [email protected]
Параметр BVOP формата : 2
Параметр QPel формата : Нет
Параметр GMC формата : Без точки перехода
Параметр матрицы формата : Выборочная
Идентификатор кодека : XVID
Идентификатор кодека/Подсказка : XviD
Продолжительность : 1 ч. 39 м.
Битрейт : 1885 Кбит/сек
Ширина : 720 пикселей
Высота : 384 пикселя
Соотношение сторон : 1,85:1
Частота кадров : 23,976 (23976/1000) кадра/сек
Цветовое пространство : YUV
Субдискретизация насыщенности : 4:2:0
Битовая глубина : 8 бит
Тип развёртки : Прогрессивная
Метод сжатия : С потерями
Бит/(Пиксели*Кадры) : 0.284
Размер потока : 1,31 Гбайт (90%)
Библиотека кодирования : XviD 73
Аудио
Идентификатор : 1
Формат : AC-3
Формат/Информация : Audio Coding 3
Расширение режима : CM (complete main)
Параметр Endianness формата : Big
Идентификатор кодека : 2000
Продолжительность : 1 ч. 39 м.
Вид битрейта : Постоянный
Битрейт : 192 Кбит/сек
Каналы : 2 канала
Расположение каналов : Front: L R
Частота : 48,0 КГц
Частота кадров : 31,250 кадров/сек (1536 spf)
Метод сжатия : С потерями
Размер потока : 137 Мбайт (9%)
Выравнивание : Разделение по промежуткам
Продолжительность промежутка : 42 мс. (1,00 видеокадр)
Время предзагрузки промежутка : 500 мс.

Скриншот c названием фильма

Скриншоты

[erzsebet.pl].t192.torrent
Torrent: Registered [ 2017-12-02 16:18 ] · CFC0A2D4A15F3166D4F70531090B106E4D978F13

Download .torrent

Download

15 KB

Status: checked
Completed: 16 times
Size: 1.45 GB
terms.php
[Profile] [PM]
Display posts:    
Reply to topic

Current time is: 03-Mar 17:36

All times are UTC ± 0



You cannot post new topics in this forum
You cannot reply to topics in this forum
You cannot edit your posts in this forum
You cannot delete your posts in this forum
You cannot vote in polls in this forum
You cannot attach files in this forum
You can download files in this forum