Магнум для Тони Саитта / Тени в пустой комнате / A Special Magnum For Tony Saitta (Альберто Де Мартино / Alberto De Martino, Мартин Герберт / Martin Herbert) [1976, Италия, Канада, Панама, детектив, криминал, триллер, BDRip] VO (Paul B.)

Reply to topic
DL-List and Torrent activity
Size:  1.44 GB   |    Registered:  3 years 3 months   |    Completed:  16 times

Seeder not seen: 3 years 3 months

 
   
 
 
Author Message

erzsebet.org ®

Longevity: 3 years 2 months

Posts: 47596

Post 02-Dec-2017 16:17

[Quote]

"Магнум" для Тони Саитта/ Тени в пустой комнате / Una Magnum Special Per Tony Saitta / A Special Magnum For Tony Saitta/ Shadows In An Empty Room
Страна: Италия, Канада, Панама
Жанр: детектив, криминал, триллер
Год выпуска: 1976
Продолжительность: 01:38:06
Перевод: Одноголосый закадровый Paul B.
Субтитры: нет
Оригинальная аудиодорожка: нет
Режиссер: Альберто Де Мартино / Alberto De Martino, Мартин Герберт / Martin Herbert
В ролях: Стюарт Уитман, Джон Сэксон, Мартин Ландау, Тиза Фэрроу, Кароль Лор, Жан Леклер, Гейл Ханникат
Описание: Капитан полиции Тони Саитта (Стюарт Уитман) прибывает из Оттавы в Монреаль на похороны своей младшей сестры Луизы (Кароль Лор), скончавшейся при загадочных обстоятельствах. Он подозревает, что к смерти Луизы причастен кто-то из её окружения и начинает действовать. Методы, которые при этом использует Саитта, весьма далеки от ординарного полицейского расследования и схожи скорее с действиями матёрых гангстеров. Неистовое желание полицейского найти убийцу сестры провоцирует череду смертей...
P.S. В начальных титрах три секунды присутствуют хардсабы с логотипом rarelust.com
Доп. информация:

Сэмпл: http://multi-up.com/1170817
Качество видео: BDRip (исходник: rarelust.com)
Формат видео: AVI
Видео: XVID, 720x384, 23.976 fps, 1 904Kbps
Аудио: MP3, 48.0 KHz, 192 Kbps, 2 channels

MediaInfo

General
Complete name : I:\Crime\Переводы\Una Magnum Special per Tony Saitta (1976) .avi
Format : AVI
Format/Info : Audio Video Interleave
File size : 1.44 GiB
Duration : 1 h 38 min
Overall bit rate : 2 105 kb/s
Writing application : VirtualDubMod 1.5.10.2 (build 2540/release)
Writing library : VirtualDubMod build 2540/release
Video
ID : 0
Format : MPEG-4 Visual
Format profile : Advanced [email protected]
Format settings, BVOP : 1
Format settings, QPel : No
Format settings, GMC : No warppoints
Format settings, Matrix : Custom
Codec ID : XVID
Codec ID/Hint : XviD
Duration : 1 h 38 min
Bit rate : 1 904 kb/s
Width : 720 pixels
Height : 384 pixels
Display aspect ratio : 1.85:1
Frame rate : 23.976 (24000/1001) FPS
Color space : YUV
Chroma subsampling : 4:2:0
Bit depth : 8 bits
Scan type : Progressive
Compression mode : Lossy
Bits/(Pixel*Frame) : 0.287
Stream size : 1.30 GiB (90%)
Writing library : XviD 67
Audio
ID : 1
Format : MPEG Audio
Format version : Version 1
Format profile : Layer 3
Mode : Joint stereo
Mode extension : MS Stereo
Codec ID : 55
Codec ID/Hint : MP3
Duration : 1 h 38 min
Bit rate mode : Constant
Bit rate : 192 kb/s
Channel(s) : 2 channels
Sampling rate : 48.0 kHz
Compression mode : Lossy
Stream size : 135 MiB (9%)
Alignment : Aligned on interleaves
Interleave, duration : 42 ms (1.00 video frame)
Interleave, preload duration : 504 ms

О фильме

Отличный образец "еврокрайма" от мастера жанрового кино Альберто Де Мартино, которому загадочным образом удавалось заполучать в свои фильмы целые созвездия мировой актёрской братии. Данный фильм не стал исключением. Снятый на волне успеха "Грязного Гарри", он, тем не менее, не является его клоном, но представляет собой жёсткий полицейский триллер европейского разлива, пересаженный на американо-канадскую почву. А шикарная музыка Армандо Тровайоли, сделавшая 50% увлекательности фильма, по многим параметрам превосходит подавляющее большинство композиций к кино подобного жанра, включая саундтрек Лало Шифрина к тому же "Грязному Гарри". Фильм Де Мартино также известен под названиями "Blazing Magnum" и "Strange Shadows In An Empty Room" и, в первую очередь, был предназначен именно для англоязычного зрителя, поэтому продюсеры, сценаристы и сам режиссёр обзавелись американизированными псевдонимами.
P.S. На IMDb и Кинопоиске отличный канадский актёр Жан Леклер почему-то указан как исполнитель роли Роберта Трейсера, несмотря на то, что исполнял роль Фреда. И ещё один серьёзный косяк от Кинопоиска: там представлен трейлер вовсе не от этого фильма, а от "Полицейский Марк бьёт снова" - заключительной части трилогии Стельвио Масси с Франко Гаспарри.

Скриншот c названием фильма

Скриншоты

[erzsebet.pl].t193.torrent
Torrent: Registered [ 2017-12-02 16:18 ] · B1EDE8311FF4725106F28F3A4D00225E07BABB7F

Download .torrent

Download

15 KB

Status: checked
Completed: 16 times
Size: 1.44 GB
terms.php
[Profile] [PM]
Display posts:    
Reply to topic

Current time is: 04-Mar 00:38

All times are UTC ± 0



You cannot post new topics in this forum
You cannot reply to topics in this forum
You cannot edit your posts in this forum
You cannot delete your posts in this forum
You cannot vote in polls in this forum
You cannot attach files in this forum
You can download files in this forum