Разнорабочий / Roustabout (Джон Рич / John Rich) [1964, США, мюзикл, мелодрама, DVD-AVC] DVO (Культура) + AVO (Визгунов) + Sub Eng + 2xOriginal Eng

DL-List and Torrent activity
Size:  1.87 GB   |    Registered:  2 years 9 months   |    Completed:  16 times
Seeders:  2  
 
   
 
 

erzsebet.org ®

Longevity:
2 years 9 months
Posts:
47596

[Quote] 

Разнорабочий / Roustabout
Страна: США
Жанр: мюзикл, мелодрама
Год выпуска: 1964
Продолжительность: 1:37:16
Перевод: Профессиональный (двухголосый закадровый) Культура
Перевод 2: Авторский (одноголосый закадровый) Визгунов
Субтитры: английские
Оригинальная аудиодорожка: английский
Режиссер: Джон Рич / John Rich
В ролях: Элвис Пресли, Барбара Стэнвик, Джоан Фриман, Лейф Эриксон, Сью Эни Лэнгдон, Пэт Баттрем, Джоан Стейли, Даббс Грир, Стив Броди, Норман Грабовски
Описание: Байкер и музыкант Чарли Роджерс решает приударить за местной красавицей, после чего её разгневанный отец спихивает его мотоцикл с дороги в канаву. На время починки своего железного коня, Чарли устраивается на работу в странствующую актёрскую труппу.
Доп. информация: Исходный ДВД http://erzsebet.org/forum/viewtopic.php?t=1778090 (спасибо Давид Степанов и agrizko).
Двухголосая озвучка канала "Культура" - запись DVB-C, почти впервые на трекере.
Английская дорожка 5.1 - реальный многоканал, как у всех ДВД этой серии.
Сэмпл: http://multi-up.com/1170761
Сэмпл с 4-мя аудиодорожками: http://multi-up.com/1171800
Качество видео: DVD-AVC
Формат видео: MKV
Видео: AVC, [email protected], 1850 Kbps, 25 fps
Аудио: AC3, 48 khz, 2.0, 192 kbps - студия "Кондор" по заказу ГТРК "Культура"
Аудио 2: AC3, 48 khz, 2.0, 192 kbps - Сергей Визгунов
Аудио 3: AC3, 48 khz, 2.0, 192 kbps - english 2.0 (отдельным файлом)
Аудио 4: AC3, 48 khz, 5.1, 448 kbps - english 5.1 (отдельным файлом)
Формат субтитров: softsub (SRT)

MediaInfo

Общее
Уникальный идентификатор : 211986708509259357689752209787823248160 (0x9F7B27AC4F9D479885B27956340AD320)
Полное имя : D:\Torrents\Roustabout [DVDRip-AVC 1964]\Roustabout [DVDRip-AVC 1964].mkv
Формат : Matroska
Версия формата : Version 4 / Version 2
Размер файла : 1,43 Гбайт
Продолжительность : 1 ч. 37 м.
Общий поток : 2111 Кбит/сек
Дата кодирования : UTC 2017-10-03 15:33:30
Программа кодирования : mkvmerge v13.0.0 ('The Juggler') 32bit
Библиотека кодирования : libebml v1.3.4 + libmatroska v1.4.5
Видео
Идентификатор : 1
Формат : AVC
Формат/Информация : Advanced Video Codec
Профиль формата : [email protected]
Параметр CABAC формата : Да
Параметр ReFrames формата : 11 кадров
Идентификатор кодека : V_MPEG4/ISO/AVC
Продолжительность : 1 ч. 37 м.
Битрейт : 1725 Кбит/сек
Номинальный битрейт : 1850 Кбит/сек
Ширина : 712 пикселей
Высота : 296 пикселей
Соотношение сторон : 2,40:1
Режим частоты кадров : Постоянный
Частота кадров : 25,000 кадров/сек
Цветовое пространство : YUV
Субдискретизация насыщенности : 4:2:0
Битовая глубина : 8 бит
Тип развёртки : Прогрессивная
Бит/(Пиксели*Кадры) : 0.327
Размер потока : 1,17 Гбайт (82%)
Библиотека кодирования : x264 core 152 r2851M ba24899
Настройки программы : cabac=1 / ref=11 / deblock=1:-3:-3 / analyse=0x3:0x133 / me=umh / subme=9 / psy=1 / psy_rd=1.00:0.00 / mixed_ref=1 / me_range=24 / chroma_me=1 / trellis=2 / 8x8dct=1 / cqm=0 / deadzone=21,11 / fast_pskip=1 / chroma_qp_offset=-2 / threads=3 / lookahead_threads=1 / sliced_threads=0 / nr=0 / decimate=1 / interlaced=0 / bluray_compat=0 / constrained_intra=0 / bframes=8 / b_pyramid=2 / b_adapt=2 / b_bias=0 / direct=3 / weightb=1 / open_gop=0 / weightp=2 / keyint=250 / keyint_min=25 / scenecut=40 / intra_refresh=0 / rc_lookahead=40 / rc=cbr / mbtree=1 / bitrate=1850 / ratetol=1.0 / qcomp=0.60 / qpmin=0 / qpmax=69 / qpstep=4 / vbv_maxrate=1850 / vbv_bufsize=1321 / nal_hrd=none / filler=0 / ip_ratio=1.40 / aq=1:1.00
Default : Да
Forced : Нет
Аудио #1
Идентификатор : 2
Формат : AC-3
Формат/Информация : Audio Coding 3
Параметр Endianness формата : Big
Идентификатор кодека : A_AC3
Продолжительность : 1 ч. 37 м.
Вид битрейта : Постоянный
Битрейт : 192 Кбит/сек
Каналы : 2 канала
Расположение каналов : Front: L R
Частота : 48,0 КГц
Частота кадров : 31,250 кадров/сек (1536 spf)
Битовая глубина : 16 бит
Метод сжатия : С потерями
Размер потока : 134 Мбайт (9%)
Заголовок : Kultura
Язык : Russian
ServiceKind/String : Complete Main
Default : Да
Forced : Нет
Аудио #2
Идентификатор : 3
Формат : AC-3
Формат/Информация : Audio Coding 3
Параметр Endianness формата : Big
Идентификатор кодека : A_AC3
Продолжительность : 1 ч. 37 м.
Вид битрейта : Постоянный
Битрейт : 192 Кбит/сек
Каналы : 2 канала
Расположение каналов : Front: L R
Частота : 48,0 КГц
Частота кадров : 31,250 кадров/сек (1536 spf)
Битовая глубина : 16 бит
Метод сжатия : С потерями
Размер потока : 134 Мбайт (9%)
Заголовок : Vizgunov
Язык : Russian
ServiceKind/String : Complete Main
Default : Нет
Forced : Нет
Текст
Идентификатор : 4
Формат : UTF-8
Идентификатор кодека : S_TEXT/UTF8
Идентификатор кодека/Информация : UTF-8 Plain Text
Продолжительность : 1 ч. 36 м.
Битрейт : 83 бит/сек
ElementCount : 1509
Размер потока : 59,2 Кбайт (0%)
Язык : English
Default : Нет
Forced : Нет

Скриншот c названием фильма

Скриншоты

If your ratio falls below 0.3, you will not be able to download Torrents! More about the rating.

[erzsebet.pl].t194.torrent
Torrent: Registered   [ 2017-12-02 16:18 ]

Download .torrent

Download

19 KB

Status: checked
Completed: 16 times
Size: 1.87 GB
terms.php

#1

02-Dec-2017 16:17

[Profile]  [PM] 
Display posts:    

You cannot post new topics in this forum
You cannot reply to topics in this forum
You cannot edit your posts in this forum
You cannot delete your posts in this forum
You cannot vote in polls in this forum
You cannot attach files in this forum
You can download files in this forum
User agreement
For copyright holders
Advertise on this site

Скачайте на халяву через торрент на трекере erzsebet.pl

!ATTENTION!
The site does not give electronic versions of products, and is engaged only in a collecting and cataloguing of the references sent and published at a forum by our readers. If you are the legal owner of any submitted material and do not wish that the reference to it was in our catalogue, contact us and we shall immediately remove her. Files for an exchange on tracker are given by users of a site, and the administration does not bear the responsibility for their maintenance. The request to not fill in the files protected by copyrights, and also files of the illegal maintenance!