Мы не женаты / We're Not Married! (Эдмунд Гулдинг / Edmund Goulding) [1952, США, комедия, мелодрама, DVDRip-AVC] MVO (1 канал) + MVO (Светла) + Sub Eng + Original Eng

Reply to topic
DL-List and Torrent activity
Size:  1.39 GB   |    Registered:  3 years 3 months   |    Completed:  16 times

Seeder not seen: 3 years 3 months

 
   
 
 
Author Message

erzsebet.org ®

Longevity: 3 years 2 months

Posts: 47596

Post 02-Dec-2017 16:17

[Quote]

Мы не женаты / We're Not Married!
Страна: США
Жанр: комедия, мелодрама
Год выпуска: 1952
Продолжительность: 1:25:35
Перевод: Профессиональный (многоголосый закадровый) 1 канал
Перевод 2: Профессиональный (многоголосый закадровый) Светла
Субтитры: английские
Оригинальная аудиодорожка: английский
Режиссер: Эдмунд Гулдинг / Edmund Goulding
В ролях: Джинджер Роджерс, Фред Аллен, Виктор Мур, Мэрилин Монро, Дэвид Уэйн, Ив Арден, Пол Дуглас, Эдди Брекен, Митци Гейнор, Луи Кэлхерн
Описание: Рассеянный юрист Мелвин Буш получил под Рождество уведомление о своём назначении на должность регистратора браков. И так обрадовался, что просмотрел самое главное: назначение вступало в силу только через неделю. За эти семь дней он успел благополучно поженить шесть пар. Прошло тридцать месяцев, прежде чем всплыла юридическая ошибка. Каждой паре было отправлено правительственное письмо, извещающее, что официально они не женаты. Какие отношения между супругами оно застанет?
Доп. информация: Исходный ДВД http://erzsebet.org/forum/viewtopic.php?t=3284085 (благодарю palmeiras и olegsa).
Из него же дорожка с переводом "Светлы" и оригинальная.
Дорожка с переводом первого канала - запись DVB-C, впервые на трекере.
Сэмпл: http://multi-up.com/1170569
Качество видео: DVDRip-AVC
Формат видео: MKV
Видео: AVC, 640x480 (4:3), 1740 Kbps, 23,976 fps
Аудио: AC3, 48 khz, 2.0, 192 kbps - 1 канал
Аудио 2: AC3, 48 khz, 2.0, 192 kbps - "Светла"
Аудио 3: AC3, 48 khz, 2.0 stereo, 192 kbps - english
Формат субтитров: softsub (SRT)

MediaInfo

Общее
Уникальный идентификатор : 170939496514180032528683323244110833227 (0x8099BFDF54C9940A903147ACD63E664B)
Полное имя : D:\Torrents\We're Not Married [DVDRip-AVC 1952].mkv
Формат : Matroska
Версия формата : Version 4 / Version 2
Размер файла : 1,39 Гбайт
Продолжительность : 1 ч. 25 м.
Общий поток : 2318 Кбит/сек
Дата кодирования : UTC 2017-10-02 04:20:28
Программа кодирования : mkvmerge v13.0.0 ('The Juggler') 32bit
Библиотека кодирования : libebml v1.3.4 + libmatroska v1.4.5
Видео
Идентификатор : 1
Формат : AVC
Формат/Информация : Advanced Video Codec
Профиль формата : [email protected]
Параметр CABAC формата : Да
Параметр ReFrames формата : 11 кадров
Идентификатор кодека : V_MPEG4/ISO/AVC
Продолжительность : 1 ч. 25 м.
Битрейт : 1740 Кбит/сек
Номинальный битрейт : 1850 Кбит/сек
Ширина : 640 пикселей
Высота : 480 пикселей
Соотношение сторон : 4:3
Режим частоты кадров : Постоянный
Частота кадров : 23,976 (24000/1001) кадра/сек
Цветовое пространство : YUV
Субдискретизация насыщенности : 4:2:0
Битовая глубина : 8 бит
Тип развёртки : Прогрессивная
Бит/(Пиксели*Кадры) : 0.236
Размер потока : 1,04 Гбайт (75%)
Библиотека кодирования : x264 core 152 r2851M ba24899
Настройки программы : cabac=1 / ref=11 / deblock=1:0:0 / analyse=0x3:0x133 / me=umh / subme=9 / psy=1 / psy_rd=1.00:0.00 / mixed_ref=1 / me_range=24 / chroma_me=1 / trellis=2 / 8x8dct=1 / cqm=0 / deadzone=21,11 / fast_pskip=1 / chroma_qp_offset=-2 / threads=3 / lookahead_threads=1 / sliced_threads=0 / nr=0 / decimate=1 / interlaced=0 / bluray_compat=0 / constrained_intra=0 / bframes=8 / b_pyramid=2 / b_adapt=2 / b_bias=0 / direct=3 / weightb=1 / open_gop=0 / weightp=2 / keyint=230 / keyint_min=23 / scenecut=40 / intra_refresh=0 / rc_lookahead=40 / rc=cbr / mbtree=1 / bitrate=1850 / ratetol=1.0 / qcomp=0.60 / qpmin=0 / qpmax=69 / qpstep=4 / vbv_maxrate=1850 / vbv_bufsize=1321 / nal_hrd=none / filler=0 / ip_ratio=1.40 / aq=1:1.00
Default : Да
Forced : Нет
Цветовой диапазон : Limited
Основные цвета : BT.601 NTSC
Характеристики трансфера : BT.601
Коэффициенты матрицы : BT.601
Аудио #1
Идентификатор : 2
Формат : AC-3
Формат/Информация : Audio Coding 3
Параметр Endianness формата : Big
Идентификатор кодека : A_AC3
Продолжительность : 1 ч. 25 м.
Вид битрейта : Постоянный
Битрейт : 192 Кбит/сек
Каналы : 2 канала
Расположение каналов : Front: L R
Частота : 48,0 КГц
Частота кадров : 31,250 кадров/сек (1536 spf)
Битовая глубина : 16 бит
Метод сжатия : С потерями
Размер потока : 118 Мбайт (8%)
Заголовок : 1
Язык : Russian
ServiceKind/String : Complete Main
Default : Да
Forced : Нет
Аудио #2
Идентификатор : 3
Формат : AC-3
Формат/Информация : Audio Coding 3
Параметр Endianness формата : Big
Идентификатор кодека : A_AC3
Продолжительность : 1 ч. 25 м.
Вид битрейта : Постоянный
Битрейт : 192 Кбит/сек
Каналы : 2 канала
Расположение каналов : Front: L R
Частота : 48,0 КГц
Частота кадров : 31,250 кадров/сек (1536 spf)
Битовая глубина : 16 бит
Метод сжатия : С потерями
Размер потока : 118 Мбайт (8%)
Заголовок : Svetla
Язык : Russian
ServiceKind/String : Complete Main
Default : Нет
Forced : Нет
Аудио #3
Идентификатор : 4
Формат : AC-3
Формат/Информация : Audio Coding 3
Параметр Endianness формата : Big
Идентификатор кодека : A_AC3
Продолжительность : 1 ч. 25 м.
Вид битрейта : Постоянный
Битрейт : 192 Кбит/сек
Каналы : 2 канала
Расположение каналов : Front: L R
Частота : 48,0 КГц
Частота кадров : 31,250 кадров/сек (1536 spf)
Битовая глубина : 16 бит
Метод сжатия : С потерями
Размер потока : 118 Мбайт (8%)
Язык : English
ServiceKind/String : Complete Main
Default : Нет
Forced : Нет
Текст
Идентификатор : 5
Формат : UTF-8
Идентификатор кодека : S_TEXT/UTF8
Идентификатор кодека/Информация : UTF-8 Plain Text
Продолжительность : 1 ч. 23 м.
Битрейт : 75 бит/сек
ElementCount : 1077
Размер потока : 46,4 Кбайт (0%)
Язык : English
Default : Нет
Forced : Нет

Скриншот c названием фильма

Скриншоты

[erzsebet.pl].t196.torrent
Torrent: Registered [ 2017-12-02 16:18 ] · 285FBAC40789509AA05DA82660A2EC6AC68E9DA3

Download .torrent

Download

14 KB

Status: checked
Completed: 16 times
Size: 1.39 GB
terms.php
[Profile] [PM]
Display posts:    
Reply to topic

Current time is: 08-Mar 03:56

All times are UTC ± 0



You cannot post new topics in this forum
You cannot reply to topics in this forum
You cannot edit your posts in this forum
You cannot delete your posts in this forum
You cannot vote in polls in this forum
You cannot attach files in this forum
You can download files in this forum