Нечто / Тварь / The Thing (Джон Карпентер / John Carpenter) [1982, США, ужасы, фантастика, HDRip] AVO (Смирнов)

Reply to topic
DL-List and Torrent activity
Size:  1.46 GB   |    Registered:  3 years 3 months   |    Completed:  16 times

Seeder not seen: Never

 
   
 
 
Author Message

erzsebet.org ®

Longevity: 3 years 2 months

Posts: 47596

Post 02-Dec-2017 15:58

[Quote]

Нечто / Тварь / The Thing
Страна: США
Студия: Universal Pictures, Turman-Foster Company
Жанр: ужасы, фантастика
Год выпуска: 1982
Продолжительность: 01:48:34-Перевод: Авторский (одноголосый закадровый) Александр Смирнов
Субтитры: нет
Оригинальная аудиодорожка: нет-Режиссер: Джон Карпентер / John Carpenter-В ролях: Курт Расселл, Кит Дэвид, Уилфорд Бримли, Т.К. Картер, Дэвид Кленнон, Ричард А. Дайсарт, Чарльз Хэллахан, Питер Мэлоуни, Ричард Мэсур, Дональд Моффет, Джоэл Полис, Томас Дж. Уэйтс, Норберт Вайссер, Ларри Дж. Франко, Нат Ирвин, Уильям Земан-Описание: Команде учёных американской исследовательской базы в Антарктике предстоит столкнуться с необъяснимым, чудовищным кошмаром. Отрезанные от всего света полярники вступают в неравную схватку с инопланетной тварью, пробудившейся после тысячелетней спячки во льдах...-Сэмпл: http://sendfile.su/1381407-Качество видео: HDRip (The.Thing.1982.BDRip.1080p.HDR.mkv)
Формат видео: AVI
Видео: 720x304 (2.35:1), 23,976 fps, XviD MPEG4 ~1726 kbps avg, 0,33 bits/(pixel*frame)
Аудио: 48 kHz, AC3 Dolby Digital, 2/0 (L,R) ch, ~192.00 kbps avg

MediaInfo

General
Complete name : F:\TORRENT\FILM\The Thing (1982).avi
Format : AVI
Format/Info : Audio Video Interleave
File size : 1.46 GiB
Duration : 1h 48mn
Overall bit rate : 1 927 Kbps
Writing application : VirtualDubMod 1.5.10.2 (build 2542/release)
Writing library : VirtualDubMod build 2542/release
Video
ID : 0
Format : MPEG-4 Visual
Format profile : Advanced [email protected]
Format settings, BVOP : 1
Format settings, QPel : No
Format settings, GMC : No warppoints
Format settings, Matrix : Custom
Codec ID : XVID
Codec ID/Hint : XviD
Duration : 1h 48mn
Bit rate : 1 726 Kbps
Width : 720 pixels
Height : 304 pixels
Display aspect ratio : 2.35:1
Frame rate : 23.976 fps
Color space : YUV
Chroma subsampling : 4:2:0
Bit depth : 8 bits
Scan type : Progressive
Compression mode : Lossy
Bits/(Pixel*Frame) : 0.329
Stream size : 1.31 GiB (90%)
Writing library : XviD 73
Audio
ID : 1
Format : AC-3
Format/Info : Audio Coding 3
Mode extension : CM (complete main)
Format settings, Endianness : Big
Codec ID : 2000
Duration : 1h 48mn
Bit rate mode : Constant
Bit rate : 192 Kbps
Channel(s) : 2 channels
Channel positions : Front: L R
Sampling rate : 48.0 KHz
Compression mode : Lossy
Stream size : 149 MiB (10%)
Alignment : Split accross interleaves
Interleave, duration : 42 ms (1.00 video frame)
Interleave, preload duration : 500 ms

Скриншот c названием фильма

Скриншоты

[erzsebet.pl].t20.torrent
Torrent: Registered [ 2017-12-02 15:58 ] · EE2F4AFFCD2C37941E3B6CC8C692AC16AFEDEA6B

Download .torrent

Download

15 KB

Status: checked
Completed: 16 times
Size: 1.46 GB
terms.php
[Profile] [PM]
Display posts:    
Reply to topic

Current time is: 03-Mar 12:01

All times are UTC ± 0



You cannot post new topics in this forum
You cannot reply to topics in this forum
You cannot edit your posts in this forum
You cannot delete your posts in this forum
You cannot vote in polls in this forum
You cannot attach files in this forum
You can download files in this forum