Пролетая над гнездом кукушки / One Flew Over the Cuckoo's Nest (Милош Форман / Milos Forman) [1975, США, драма, BDRip] AVO (Василий Горчаков - ранний)

Reply to topic
DL-List and Torrent activity
Size:  1.45 GB   |    Registered:  3 years 3 months   |    Completed:  16 times

Seeder not seen: 3 years 3 months

 
   
 
 
Author Message

erzsebet.org ®

Longevity: 3 years 2 months

Posts: 47596

Post 02-Dec-2017 16:17

[Quote]

Пролетая над гнездом кукушки / One Flew Over the Cuckoo's Nest
Страна: США
Жанр: драма
Год выпуска: 1975
Продолжительность: 02:13:42
Перевод: Авторский (одноголосый закадровый) Василий Горчаков (ранний перевод)
Субтитры: нет
Режиссер: Милош Форман / Milos Forman
В ролях: Джек Николсон, Луиз Флетчер, Уильям Редфилд, Майкл Берриман, Питер Брокко, Дин Р. Брукс, Алонсо Браун, Скэтмэн Кроверс, Муако Кумбука
Описание: Легко ли обмануть психиатров ? Насильник-педофил Рэндл Макмёрфи уверен, что у него получится. Первый шаг он уже сделал, и вместо тюрьмы его переводят в больницу на освидетельствование. Однако и в доме скорби есть над чем поработать: старшая медсестра Милдред Рэтчед организовала здесь слишком суровую дисциплину. Преступник начинает конкурировать с женщиной за власть и отстаивать права пациентов. Совершенно вменяемый главный герой уверен, что переспит с новой начальницей и даже не подозревает, что это намерение — абсолютно сумасшедшее....
Доп. информация: Дорога синхронизирована Нордер при помощи Sony Vegas . За предоставленную дорожку благодарим - AMIRKHAN NOIR из Баку
Сэмпл: http://multi-up.com/1169806
Качество видео: BDRip (Исходник BDRemux 1080p)
Формат видео: AVI
Видео: XviD 73, 720x400, (16:9), 23,976 fps, 1356 Кбит/с, 8 бит, 0.20 bit/pixel
Аудио: Русский (АС3, 2 ch (Front: L R), 48,0 KHz, 192 Kbps)

MediaInfo

Общее
Полное имя : D:\Видеофильмы\В и д е о\Пролетая над гнездом кукушки (драма 1975 год).avi
Формат : AVI
Формат/Информация : Audio Video Interleave
Размер файла : 1,45 Гбайт
Продолжительность : 2 ч. 13 м.
Общий поток : 1558 Кбит/сек
Программа кодирования : VirtualDubMod 1.5.10.3 | www.virtualdub-fr.org || (build 2550/release)
Библиотека кодирования : VirtualDubMod build 2550/release
Видео
Идентификатор : 0
Формат : MPEG-4 Visual
Профиль формата : Advanced [email protected]
Параметр BVOP формата : 2
Параметр QPel формата : Нет
Параметр GMC формата : Без точки перехода
Параметр матрицы формата : Выборочная
Идентификатор кодека : XVID
Идентификатор кодека/Подсказка : XviD
Продолжительность : 2 ч. 13 м.
Битрейт : 1356 Кбит/сек
Ширина : 720 пикселей
Высота : 400 пикселей
Соотношение сторон : 16:9
Частота кадров : 23,976 (23976/1000) кадра/сек
Цветовое пространство : YUV
Субдискретизация насыщенности : 4:2:0
Битовая глубина : 8 бит
Тип развёртки : Прогрессивная
Метод сжатия : С потерями
Бит/(Пиксели*Кадры) : 0.196
Размер потока : 1,27 Гбайт (87%)
Библиотека кодирования : XviD 73
Аудио
Идентификатор : 1
Формат : AC-3
Формат/Информация : Audio Coding 3
Расширение режима : CM (complete main)
Параметр Endianness формата : Big
Идентификатор кодека : 2000
Продолжительность : 2 ч. 13 м.
Вид битрейта : Постоянный
Битрейт : 192 Кбит/сек
Каналы : 2 канала
Расположение каналов : Front: L R
Частота : 48,0 КГц
Частота кадров : 31,250 кадров/сек (1536 spf)
Метод сжатия : С потерями
Размер потока : 184 Мбайт (12%)
Выравнивание : Разделение по промежуткам
Продолжительность промежутка : 42 мс. (1,00 видеокадр)
Время предзагрузки промежутка : 500 мс.

Скриншот c названием фильма

Скриншоты

[erzsebet.pl].t202.torrent
Torrent: Registered [ 2017-12-02 16:18 ] · 5DFC8B4D8B0F6F0D52F7BD609C4876E2F72F6F34

Download .torrent

Download

15 KB

Status: checked
Completed: 16 times
Size: 1.45 GB
terms.php
[Profile] [PM]
Display posts:    
Reply to topic

Current time is: 02-Mar 22:29

All times are UTC ± 0



You cannot post new topics in this forum
You cannot reply to topics in this forum
You cannot edit your posts in this forum
You cannot delete your posts in this forum
You cannot vote in polls in this forum
You cannot attach files in this forum
You can download files in this forum