Время сведения счетов / Кольт пропел о смерти / Время убивать / Le colt cantarono la morte / Tempo di massacro / The Brute and the Beast / Massacre Time (Лучо Фульчи / Lucio Fulci) [1966, Италия, вестерн, DVDRip] AVO (Гаврилов) + Original Ita

Reply to topic
DL-List and Torrent activity
Size:  1.45 GB   |    Registered:  3 years 3 months   |    Completed:  16 times

Seeder not seen: 3 years 3 months

 
   
 
 
Author Message

erzsebet.org ®

Longevity: 3 years 2 months

Posts: 47596

Post 02-Dec-2017 16:17

[Quote]

Время сведения счетов / Le colt cantarono la morte e fu... tempo di massacro
Страна: Италия
Жанр: спагетти-вестерн
Год выпуска: 1966
Продолжительность: 01:32:13
Перевод: Авторский (одноголосый закадровый) Андрея Гаврилова
Субтитры: нет
Оригинальная аудиодорожка: итальянский
Режиссер: Лучо Фульчи /Lucio Fulci/
В ролях: Франко Неро /Franco Nero/, Джордж Хилтон /George Hilton/, Линда Сини /Linda Sini/, Джузеппе Аддоббати /Giuseppe Addobbati/, Нино Кастельнуово /Nino Castelnuovo/, Том Феллеги /Tom Felleghy/, Франко Моричи /Franco Moruzzi/, Рина Франкетти /Rina Franchetti/...
Рецензия Михаила Иванова: Золотоискатель Франко Неро получает письмо, в котором его срочно просят приехать домой. На родной ферме Неро находит все в запустении. Брата Джеффа нет. А кругом все: и фермы, и банк, и салун в близлежащем городке принадлежат некоему мистеру Скотту, ограбившему всех жителей и расправляющемуся со всеми недовольными. Неро находит пьяного брата в каком-то сарае вместе с индианкой Мерседес, воспитавшей их обоих. Они оба уговаривают его уехать, но он начинает искать Скотта. В этом ему помогает трезвеющий время от времени Джефф, лихо дерущийся и стреляющий без промаха. Потом выясняется, что отца одного из братьев убил этот самый мистер Скотт, являющийся отцом Неро. У мистера Скотта есть и еще один сын, младший, избивающий всех кнутом и ответственный за всеобщий беспредел кругом. С ним то в конечном итоге Неро и должен свести счеты. Вообще фильм дико бестолковый, сделан с чудовищным пафосом и идиотской многозначительностью. Но стрельбы хватает - поклонники "спаггетти-вестернов" будут довольны.
Доп. информация: исходник от colt451; дорожку с переводом Гаврилова оцифровал и подготовил karlll
Качество видео: DVDRip ~Сэмпл~
Формат видео: AVI
Видео: 720x304 (2.37:1), 23.976 fps, XviD build 73 ~1854 kbps avg, 0.35 bit/pixel
Аудио 1: 48 kHz, AC3 Dolby Digital, 2/0 (L,R) ch, ~192 kbps - Гаврилов
Аудио 2: 48 kHz, AC3 Dolby Digital, 2/0 (L,R) ch, ~192 kbps - итальянский

MediaInfo

Формат : AVI
Формат/Информация : Audio Video Interleave
Размер файла : 1,45 Гбайт
Продолжительность : 1 ч. 32 м.
Общий поток : 2253 Кбит/сек
Название фильма : Le colt contarno la morte e fu... tempo di massacro (1966)
Программа кодирования : VirtualDubMod 1.5.10.3 | www.virtualdub-fr.org || (build 2550/release)
Библиотека кодирования : VirtualDubMod build 2550/release
Правообладатель : Karl's Bayou Country
Видео
Идентификатор : 0
Формат : MPEG-4 Visual
Профиль формата : Advanced [email protected]
Параметр BVOP формата : 2
Параметр QPel формата : Нет
Параметр GMC формата : Без точки перехода
Параметр матрицы формата : Выборочная
Идентификатор кодека : XVID
Идентификатор кодека/Подсказка : XviD
Продолжительность : 1 ч. 32 м.
Битрейт : 1855 Кбит/сек
Ширина : 720 пикселей
Высота : 304 пикселя
Соотношение сторон : 2,35:1
Частота кадров : 23,976 кадра/сек
Цветовое пространство : YUV
Субдискретизация насыщенности : 4:2:0
Битовая глубина : 8 бит
Тип развёртки : Прогрессивная
Метод сжатия : С потерями
Бит/(Пиксели*Кадры) : 0.353
Размер потока : 1,19 Гбайт (82%)
Библиотека кодирования : XviD 73
Аудио #1
Идентификатор : 1
Формат : AC-3
Формат/Информация : Audio Coding 3
Расширение режима : CM (complete main)
Параметр Endianness формата : Big
Идентификатор кодека : 2000
Продолжительность : 1 ч. 32 м.
Вид битрейта : Постоянный
Битрейт : 192 Кбит/сек
Каналы : 2 канала
Расположение каналов : Front: L R
Частота : 48,0 КГц
Битовая глубина : 16 бит
Метод сжатия : С потерями
Размер потока : 127 Мбайт (9%)
Выравнивание : Разделение по промежуткам
Продолжительность промежутка : 42 мс. (1,00 видеокадр)
Время предзагрузки промежутка : 500 мс.
Заголовок : Gavrilov
Аудио #2
Идентификатор : 2
Формат : AC-3
Формат/Информация : Audio Coding 3
Расширение режима : CM (complete main)
Параметр Endianness формата : Big
Идентификатор кодека : 2000
Продолжительность : 1 ч. 32 м.
Вид битрейта : Постоянный
Битрейт : 192 Кбит/сек
Каналы : 2 канала
Расположение каналов : Front: L R
Частота : 48,0 КГц
Битовая глубина : 16 бит
Метод сжатия : С потерями
Размер потока : 127 Мбайт (9%)
Выравнивание : Разделение по промежуткам
Продолжительность промежутка : 42 мс. (1,00 видеокадр)
Время предзагрузки промежутка : 500 мс.
Заголовок : italiano

Скриншоты

[erzsebet.pl].t203.torrent
Torrent: Registered [ 2017-12-02 16:18 ] · 31BCA6C2ACC703086F0119C8042C789C10775605

Download .torrent

Download

15 KB

Status: checked
Completed: 16 times
Size: 1.45 GB
terms.php
[Profile] [PM]
Display posts:    
Reply to topic

Current time is: 04-Mar 00:10

All times are UTC ± 0



You cannot post new topics in this forum
You cannot reply to topics in this forum
You cannot edit your posts in this forum
You cannot delete your posts in this forum
You cannot vote in polls in this forum
You cannot attach files in this forum
You can download files in this forum