Простая история / У каждого свой шанс / Une histoire simple / A Simple Story / Eine einfache Geschichte (Клод Соте / Claude Sautet) [1978, Франция, Германия (ФРГ), драма, DVDRip] MVO (СВ Дубль / Культура) + Original Fre

Reply to topic
DL-List and Torrent activity
Size:  1.46 GB   |    Registered:  3 years 3 months   |    Completed:  16 times

Seeder not seen: 3 years 3 months

 
   
 
 
Author Message

erzsebet.org ®

Longevity: 3 years 2 months

Posts: 47596

Post 02-Dec-2017 16:17

[Quote]

Простая история / У каждого свой шанс / Une histoire simple / A Simple Story / Eine einfache Geschichte Страна: Франция, Германия (ФРГ)
Жанр: драма
Год выпуска: 1978
Продолжительность: 01:43:29
Перевод: Профессиональный (многоголосый закадровый) - «СВ Дубль» по заказу ГТРК "Культура"
Субтитры: нет
Оригинальная аудиодорожка: французская
Режиссер: Клод Соте / Claude Sautet
В ролях: Роми Шнайдер, Бруно Кремер, Клод Брассёр, Роже Пиго, Арлетт Боннар, Франсин Берже, Софи Домье, Ева Дарлан, Надин Алари, Вера Шредер.
Описание: Расставшись с мужем, тридцативосьмилетняя Мари решает, как ей жить дальше, оставить ли ребенка от своего любовника Сержа, продолжать ли отношения с самим Сержем… Только поддержка самых близких людей помогает Мари справиться со своими проблемами.
Награды: Сезар, 1979 г. - «Лучшая актриса» (Роми Шнайдер)
Оскар, 1980 г. - номинация «Лучший фильм на иностранном языке» (Франция)

Доп. информация: DVDRip из раздачи bm11. За DVD спасибо Alec Storm, bigpapik и bouba93 (Cinematik)
Благодарность за запись со спутника перевода студии «СВ-Дубль» уходит flaSI-I
Синхронизация русской звуковой дорожки проведена Arle-kino

Качество видео: DVDRip
Формат видео: AVI
Видео: 672x400 (1.68:1), 25 fps, XviD build 65 ~1623 kbps avg, 0.24 bit/pixel
Аудио 1: 48 kHz, AC3 Dolby Digital, 2/0 (L,R) ch, ~192 kbps - Rus
Аудио 2: 48 kHz, AC3 Dolby Digital, 2/0 (L,R) ch, ~192 kbps - Fra

MediaInfo

General
Complete name : D:\Public\WORKING ROOM\Une.histoire.simple.1978.DVDRip.Rus.Fra.avi
Format : AVI
Format/Info : Audio Video Interleave
File size : 1.46 GiB
Duration : 1 h 43 min
Overall bit rate : 2 022 kb/s
Director : bm11
Writing application : VirtualDubMod 1.5.10.2 (build 2540/release)
Writing library : VirtualDubMod build 2540/release
Video
ID : 0
Format : MPEG-4 Visual
Format profile : Advanced [email protected]
Format settings, BVOP : 2
Format settings, QPel : No
Format settings, GMC : No warppoints
Format settings, Matrix : Custom
Codec ID : XVID
Codec ID/Hint : XviD
Duration : 1 h 43 min
Bit rate : 1 624 kb/s
Width : 672 pixels
Height : 400 pixels
Display aspect ratio : 5:3
Frame rate : 25.000 FPS
Color space : YUV
Chroma subsampling : 4:2:0
Bit depth : 8 bits
Scan type : Progressive
Compression mode : Lossy
Bits/(Pixel*Frame) : 0.242
Stream size : 1.17 GiB (80%)
Writing library : XviD 65
Audio #1
ID : 1
Format : AC-3
Format/Info : Audio Coding 3
Format settings, Endianness : Big
Codec ID : 2000
Duration : 1 h 43 min
Bit rate mode : Constant
Bit rate : 192 kb/s
Channel(s) : 2 channels
Channel positions : Front: L R
Sampling rate : 48.0 kHz
Frame rate : 31.250 FPS (1536 SPF)
Bit depth : 16 bits
Compression mode : Lossy
Stream size : 142 MiB (9%)
Alignment : Split accross interleaves
Interleave, duration : 40 ms (1.00 video frame)
Interleave, preload duratio : 500 ms
Title : Rus
Service kind : Complete Main
Audio #2
ID : 2
Format : AC-3
Format/Info : Audio Coding 3
Format settings, Endianness : Big
Codec ID : 2000
Duration : 1 h 43 min
Bit rate mode : Constant
Bit rate : 192 kb/s
Channel(s) : 2 channels
Channel positions : Front: L R
Sampling rate : 48.0 kHz
Frame rate : 31.250 FPS (1536 SPF)
Bit depth : 16 bits
Compression mode : Lossy
Stream size : 142 MiB (9%)
Alignment : Split accross interleaves
Interleave, duration : 40 ms (1.00 video frame)
Interleave, preload duratio : 500 ms
Title : Fra
Service kind : Complete Main

Скриншот c названием фильма

Скриншоты

[erzsebet.pl].t204.torrent
Torrent: Registered [ 2017-12-02 16:18 ] · 72818B42CDC953ACE8AD2C35B395B5CBD5D3E8EE

Download .torrent

Download

15 KB

Status: checked
Completed: 16 times
Size: 1.46 GB
terms.php
[Profile] [PM]
Display posts:    
Reply to topic

Current time is: 08-Mar 00:53

All times are UTC ± 0



You cannot post new topics in this forum
You cannot reply to topics in this forum
You cannot edit your posts in this forum
You cannot delete your posts in this forum
You cannot vote in polls in this forum
You cannot attach files in this forum
You can download files in this forum