Девушки! Девушки! Девушки! (девочки) / Girls! Girls! Girls! (Норман Таурог / Norman Taurog) [1962, США, комедия, мюзикл, мелодрама, DVD-AVC] DVO (Культура) + VO + Sub Eng + 2xOriginal Eng

DL-List and Torrent activity
Size:  1.82 GB   |    Registered:  2 years 9 months   |    Completed:  16 times
Seeders:  3  
 
   
 
 

erzsebet.org ®

Longevity:
2 years 9 months
Posts:
47596

[Quote] 

Девушки! Девушки! Девушки! / Girls! Girls! Girls!
Страна: США
Жанр: комедия, мюзикл, мелодрама
Год выпуска: 1962
Продолжительность: 1:34:46
Перевод: Профессиональный (двухголосый закадровый) Культура
Перевод 2: Одноголосый закадровый
Субтитры: английские
Оригинальная аудиодорожка: английский
Режиссер: Норман Таурог / Norman Taurog
В ролях: Элвис Пресли, Стелла Стивенс, Джереми Слейт, Бенсон Фонг, Роберт Страусс
Описание: Росс Карпентер больше всего в жизни любит волю, море и девушек. Жизнь его течет легко и беззаботно: днем он осуществляет чартерные рыболовные рейсы, а вечером - подрабатывает в баре певцом. И лишь одна проблема не дает покоя Россу - кого предпочесть: роковую красавицу, певицу Робин, или просто очаровательную девушку Лаурел... Когда он узнает, что его босс уезжает в Аризону, Росс должен найти способ купить Westwind, лодку, которую он и его отец строили.
Доп. информация: Исходный DVD9 PAL скачан из сети. Из него же взяты без изменений обе английские дорожки, одна 5.1, другая - как сказано в меню - ремастированное моно.
Дорожка с двухголосой озвучкой - запись с цифрового кабельного DVB, впервые на трекере.
Дорожка с авторским переводом из раздачи http://erzsebet.org/forum/viewtopic.php?t=4642360 (спасибо bm11 и SMaiklS). В ней один из каналов был бракованый - исправлено, поскольку все равно моно.
Сэмпл: http://multi-up.com/1170181
Качество видео: DVD-AVC
Формат видео: MKV
Видео: AVC, 704x400 (16:9), 1724 Kbps, 25 fps
Аудио: AC3, 48 khz, 2.0, 192 kbps - студия "Кондор" по заказу ГТРК "Культура"
Аудио 2: AC3, 48 khz, 2.0, 192 kbps - одноголосый
Аудио 3: AC3, 48 khz, 2.0, 192 kbps - english 2.0 (отдельным файлом)
Аудио 4: AC3, 48 khz, 5.1, 448 kbps - english 5.1 (отдельным файлом)
Формат субтитров: softsub (SRT)

MediaInfo

Общее
Уникальный идентификатор : 235611967839758063777087734579009149783 (0xB14136E3B21354F5A72108B8263FDB57)
Полное имя : D:\Torrents\Girls Girls Girls [DVDRip-AVC 1962]\Girls Girls Girls [DVDRip-AVC 1962].mkv
Формат : Matroska
Версия формата : Version 4 / Version 2
Размер файла : 1,40 Гбайт
Продолжительность : 1 ч. 34 м.
Общий поток : 2110 Кбит/сек
Дата кодирования : UTC 2017-09-29 14:31:13
Программа кодирования : mkvmerge v13.0.0 ('The Juggler') 32bit
Библиотека кодирования : libebml v1.3.4 + libmatroska v1.4.5
Видео
Идентификатор : 1
Формат : AVC
Формат/Информация : Advanced Video Codec
Профиль формата : [email protected]
Параметр CABAC формата : Да
Параметр ReFrames формата : 11 кадров
Идентификатор кодека : V_MPEG4/ISO/AVC
Продолжительность : 1 ч. 34 м.
Битрейт : 1724 Кбит/сек
Ширина : 704 пикселя
Высота : 400 пикселей
Соотношение сторон : 16:9
Режим частоты кадров : Постоянный
Частота кадров : 25,000 кадров/сек
Цветовое пространство : YUV
Субдискретизация насыщенности : 4:2:0
Битовая глубина : 8 бит
Тип развёртки : Прогрессивная
Бит/(Пиксели*Кадры) : 0.245
Размер потока : 1,14 Гбайт (82%)
Библиотека кодирования : x264 core 130 r2273 b3065e6
Настройки программы : cabac=1 / ref=11 / deblock=1:-3:-3 / analyse=0x3:0x113 / me=umh / subme=11 / psy=1 / psy_rd=1.00:0.00 / mixed_ref=1 / me_range=48 / chroma_me=1 / trellis=2 / 8x8dct=1 / cqm=0 / deadzone=21,11 / fast_pskip=0 / chroma_qp_offset=-2 / threads=3 / lookahead_threads=1 / sliced_threads=0 / nr=0 / decimate=0 / interlaced=0 / bluray_compat=0 / constrained_intra=0 / bframes=8 / b_pyramid=2 / b_adapt=2 / b_bias=0 / direct=3 / weightb=1 / open_gop=1 / weightp=2 / keyint=240 / keyint_min=23 / scenecut=40 / intra_refresh=0 / rc_lookahead=40 / rc=2pass / mbtree=0 / bitrate=1724 / ratetol=1.0 / qcomp=0.60 / qpmin=0 / qpmax=69 / qpstep=4 / cplxblur=20.0 / qblur=0.5 / vbv_maxrate=50000 / vbv_bufsize=62500 / nal_hrd=none / ip_ratio=1.40 / pb_ratio=1.30 / aq=1:1.10
Язык : English
Default : Да
Forced : Нет
Аудио #1
Идентификатор : 2
Формат : AC-3
Формат/Информация : Audio Coding 3
Параметр Endianness формата : Big
Идентификатор кодека : A_AC3
Продолжительность : 1 ч. 34 м.
Вид битрейта : Постоянный
Битрейт : 192 Кбит/сек
Каналы : 2 канала
Расположение каналов : Front: L R
Частота : 48,0 КГц
Частота кадров : 31,250 кадров/сек (1536 spf)
Битовая глубина : 16 бит
Метод сжатия : С потерями
Размер потока : 130 Мбайт (9%)
Заголовок : Kultura
Язык : Russian
ServiceKind/String : Complete Main
Default : Да
Forced : Нет
Аудио #2
Идентификатор : 3
Формат : AC-3
Формат/Информация : Audio Coding 3
Параметр Endianness формата : Big
Идентификатор кодека : A_AC3
Продолжительность : 1 ч. 34 м.
Вид битрейта : Постоянный
Битрейт : 192 Кбит/сек
Каналы : 2 канала
Расположение каналов : Front: L R
Частота : 48,0 КГц
Частота кадров : 31,250 кадров/сек (1536 spf)
Битовая глубина : 16 бит
Метод сжатия : С потерями
Размер потока : 130 Мбайт (9%)
Заголовок : VO
Язык : Russian
ServiceKind/String : Complete Main
Default : Нет
Forced : Нет
Текст
Идентификатор : 4
Формат : UTF-8
Идентификатор кодека : S_TEXT/UTF8
Идентификатор кодека/Информация : UTF-8 Plain Text
Продолжительность : 1 ч. 29 м.
Битрейт : 50 бит/сек
ElementCount : 897
Размер потока : 33,2 Кбайт (0%)
Язык : English
Default : Нет
Forced : Нет

Скриншот c названием фильма

Скриншоты

Торрент перезалит 29.09.2017 - две английские дорожки вынесены отдельными файлами.

If your ratio falls below 0.3, you will not be able to download Torrents! More about the rating.

[erzsebet.pl].t205.torrent
Torrent: Registered   [ 2017-12-02 16:18 ]

Download .torrent

Download

19 KB

Status: checked
Completed: 16 times
Size: 1.82 GB
terms.php

#1

02-Dec-2017 16:17

[Profile]  [PM] 
Display posts:    

You cannot post new topics in this forum
You cannot reply to topics in this forum
You cannot edit your posts in this forum
You cannot delete your posts in this forum
You cannot vote in polls in this forum
You cannot attach files in this forum
You can download files in this forum
User agreement
For copyright holders
Advertise on this site

Скачайте на халяву через торрент на трекере erzsebet.pl

!ATTENTION!
The site does not give electronic versions of products, and is engaged only in a collecting and cataloguing of the references sent and published at a forum by our readers. If you are the legal owner of any submitted material and do not wish that the reference to it was in our catalogue, contact us and we shall immediately remove her. Files for an exchange on tracker are given by users of a site, and the administration does not bear the responsibility for their maintenance. The request to not fill in the files protected by copyrights, and also files of the illegal maintenance!