Мадо / Mado (Клод Соте / Claude Sautet) [1976, Франция, Италия, ФРГ, Драма, DVDRip] VO + Sub Rus + Original Fre

DL-List and Torrent activity
Size:  1.37 GB   |    Registered:  2 years 9 months   |    Completed:  16 times
Seeders:  2   Leechers:  1   Show peers in full details
 
   
 
 

erzsebet.org ®

Longevity:
2 years 9 months
Posts:
47596

[Quote] 

Мадо / Mado
Страна: Франция, Италия, ФРГ
Жанр: Драма
Год выпуска: 1976
Продолжительность: 01:57:31
Перевод: Одноголосый закадровый Студия Альтера Парс Алексей Савченко
Субтитры: Русские
Оригинальная аудиодорожка: Французский
Режиссер: Клод Соте / Claude Sautet
В ролях: Мишель Пикколи, Роми Шнайдер, Оттавия Пикколо, Жак Дютрон, Шарль Деннер, Жюльен Гийомар, Клод Дофен, Мишель Омон, Жан Буиз, Андре Фалькон, Николас Фогель, Сабин Гласер, Натали Бай
Описание: Знаменитый французский режиссер Клод Сотэ ("Мелочи жизни", 1970, "Сезар и Розали", 1972) — большой знаток человеческой психологии, мастер выразительной детали, виртуоз-сочинитель "простых историй", обладатель редкого дара обнаруживать в обыденном — значимое, в бессобытийном, на первый взгляд, течении жизни — берущие за душу сюжеты. Любой фильм Сотэ — это непременно лучшие артисты. В "Мадо" их целое созвездие: любимая актриса режиссера Роми Шнайдер ("Невинные с грязными руками", 1975), его любимый актер Мишель Пикколи ("Кровавое распутство", 1973), Оттавиа Пикколо ("Зорро", 1975), Жак Дютронк ("За нас двоих", 1979), Шарль Деннер ("Страх над городом", 1975)...
Мадо — девушка, живущая за счет богатых покровителей. Ничего предосудительного в своей профессии она не видит, считая, что "каждый продается, как умеет". Одного из ее любовников, Симона Леотара, хозяина солидной фирмы, начинает шантажировать конкурент. Леотару грозит полное разорение и, оказывается, что единственный человек, способный помочь ему избежать жизненной катастрофы, это Мадо...
Доп. информация: Рип сделан с буржуйского DVD 9 и отличается от рипов с трекера Альтернативной озвучкой (Озвучка примерно 90х годов)
DVD Можно взять здесь - http://erzsebet.org/forum/viewtopic.php?t=5461810
Сэмпл: http://multi-up.com/1170141
Качество видео: DVDRip
Формат видео: AVI
Видео: 640х400, 25.000 fps, 1 274 Kbps
Аудио 1: Русский (AC3 192 kbps 2 ch 48.0 KHz)
Аудио 2: Французский (AC3 192 kbps 2 ch 48.0 KHz)
Формат субтитров: softsub (SRT)

MediaInfo

General
Complete name : C:\Documents and Settings\Admin\Мои документы\Downloads\Mado 1976\Mado 1976.avi
Format : AVI
Format/Info : Audio Video Interleave
File size : 1.37 GiB
Duration : 1h 57mn
Overall bit rate : 1 666 Kbps
Writing application : VirtualDubMod 1.5.4.1 (build 2178/release)
Writing library : VirtualDubMod build 2178/release
Video
ID : 0
Format : MPEG-4 Visual
Format profile : Advanced [email protected]
Format settings, BVOP : 1
Format settings, QPel : No
Format settings, GMC : No warppoints
Format settings, Matrix : Custom
Codec ID : XVID
Codec ID/Hint : XviD
Duration : 1h 57mn
Bit rate : 1 274 Kbps
Width : 640 pixels
Height : 400 pixels
Display aspect ratio : 16:10
Frame rate : 25.000 fps
Color space : YUV
Chroma subsampling : 4:2:0
Bit depth : 8 bits
Scan type : Progressive
Compression mode : Lossy
Bits/(Pixel*Frame) : 0.199
Stream size : 1.05 GiB (76%)
Writing library : XviD 1.2.1 (UTC 2008-12-04)
Audio #1
ID : 1
Format : AC-3
Format/Info : Audio Coding 3
Mode extension : CM (complete main)
Format settings, Endianness : Big
Codec ID : 2000
Duration : 1h 57mn
Bit rate mode : Constant
Bit rate : 192 Kbps
Channel(s) : 2 channels
Channel positions : Front: L R
Sampling rate : 48.0 KHz
Bit depth : 16 bits
Compression mode : Lossy
Stream size : 161 MiB (12%)
Alignment : Split accross interleaves
Interleave, duration : 96 ms (2.40 video frames)
Interleave, preload duration : 96 ms
Language : Russian
Audio #2
ID : 2
Format : AC-3
Format/Info : Audio Coding 3
Mode extension : CM (complete main)
Format settings, Endianness : Big
Codec ID : 2000
Duration : 1h 57mn
Bit rate mode : Constant
Bit rate : 192 Kbps
Channel(s) : 2 channels
Channel positions : Front: L R
Sampling rate : 48.0 KHz
Bit depth : 16 bits
Compression mode : Lossy
Stream size : 161 MiB (12%)
Alignment : Split accross interleaves
Interleave, duration : 96 ms (2.40 video frames)
Interleave, preload duration : 96 ms
Language : Francais

Скриншот c названием фильма

Скриншоты

Пример субтитров

00:00:58,760 --> 00:01:00,478
- А с другими?
- Что?
2
00:01:01,360 --> 00:01:03,430
- Так же?
- Так же для кого?
3
00:01:05,320 --> 00:01:07,072
- Для тебя.
- Для меня?
4
00:01:08,840 --> 00:01:10,353
А ты как думаешь?
5
00:01:11,760 --> 00:01:13,352
Вот я и спрашиваю.
6
00:01:14,280 --> 00:01:17,192
- Когда сам платишь - непонятно.
- Конечно.
7
00:01:18,040 --> 00:01:20,713
Надо, чтобы ты побывал на моём месте.
8
00:01:21,520 --> 00:01:22,748
Это трудно.
9
00:01:23,600 --> 00:01:25,955
Это точно. Никогда не пробовал?
10
00:01:26,200 --> 00:01:26,996
Что?
11
00:01:29,040 --> 00:01:30,917
Спать за деньги? - Нет.
12
00:01:32,520 --> 00:01:33,475
Бедняга.
13
00:01:34,920 --> 00:01:36,831
Вот он, минус богатства.
14
00:01:38,760 --> 00:01:39,510
Да.
15
00:01:41,240 --> 00:01:43,390
Одиночество богатого человека.
16
00:01:49,560 --> 00:01:52,028
Андре Женовез представляет
17
00:01:52,840 --> 00:01:56,549
Мишель Пикколи, Оттавиа Пикколо
18
00:01:56,640 --> 00:02:00,394
Жак Дютрон, Шарль Деннер
19
00:02:00,560 --> 00:02:01,993
в фильме
20
00:02:03,360 --> 00:02:06,909
МАДО

If your ratio falls below 0.3, you will not be able to download Torrents! More about the rating.

[erzsebet.pl].t208.torrent
Torrent: Registered   [ 2017-12-02 16:18 ]

Download .torrent

Download

14 KB

Status: checked
Completed: 16 times
Size: 1.37 GB
terms.php

#1

02-Dec-2017 16:17

[Profile]  [PM] 
Display posts:    

You cannot post new topics in this forum
You cannot reply to topics in this forum
You cannot edit your posts in this forum
You cannot delete your posts in this forum
You cannot vote in polls in this forum
You cannot attach files in this forum
You can download files in this forum
User agreement
For copyright holders
Advertise on this site

Скачайте на халяву через торрент на трекере erzsebet.pl

!ATTENTION!
The site does not give electronic versions of products, and is engaged only in a collecting and cataloguing of the references sent and published at a forum by our readers. If you are the legal owner of any submitted material and do not wish that the reference to it was in our catalogue, contact us and we shall immediately remove her. Files for an exchange on tracker are given by users of a site, and the administration does not bear the responsibility for their maintenance. The request to not fill in the files protected by copyrights, and also files of the illegal maintenance!