Гамлет / Hamlet (Франко Дзеффирелли / Franco Zeffirelli) [1990, США, Великобритания, Франция, драма, HDRip] MVO (ОРТ)

DL-List and Torrent activity
Size:  2.18 GB   |    Registered:  2 years 9 months   |    Completed:  16 times
Seeders:  7  
 
   
 
 

erzsebet.org ®

Longevity:
2 years 9 months
Posts:
47596

[Quote] 

Гамлет / Hamlet
Страна: США, Великобритания, Франция
Жанр: драма
Год выпуска: 1990
Продолжительность: 02:14:35
Перевод: Профессиональный (многоголосый закадровый) кинокомпания «Селена Интернешнл» по заказу ОРТ
Субтитры: нет
Оригинальная аудиодорожка: нет
Режиссер: Франко Дзеффирелли / Franco Zeffirelli
В ролях: Мэл Гибсон (Mel Gibson / Hamlet), Гленн Клоуз (Glenn Close / Gertrude), Алан Бейтс (Alan Bates / Claudius), Иэн Холм (Ian Holm / Polonius), Хелена Бонем Картер (Helena Bonham Carter / Ophelia), Пол Скофилд (Paul Scofield / The Ghost), Стивен Диллэйн (Stephen Dillane / Horatio), Натаниель Паркер (Nathaniel Parker / Laertes), Шон Мюррей (Sean Murray / Guildenstern), Майкл Мэлоуни (Michael Maloney / Rosencrantz), Тревор Пикок (Trevor Peacock / The Gravedigger), Джон МакИнери (John McEnery / Osric), Ричард Уорвик (Richard Warwick / Bernardo), Кристиен Энхолт (Christien Anholt / Marcellus), Дэйв Даффи (Dave Duffy / Francisco), Вернон Добчефф (Vernon Dobtcheff / Reynaldo) и другие.
Описание: Экранизация итальянского режиссёра Франко Дзеффирелли бессмертной пьесы Уильяма Шекспира «Гамлет», жестокой саги о любви, предательстве и смерти.
Принцу Гамлету является призрак недавно умершего отца. Подозревая то, что отец умер насильственной смертью, принц ищет доказательства вины короля Клавдия. Терзаемого страшными догадками принца, окружающие принимают за сумасшедшего. Между тем принц, разбираясь со своей жизнью, пытается найти ответы на высшие философские вопросы бытия…
Доп. информация: За исходник для видео спасибо TolstiyMob. За аудиодорожку спасибо Hel_ka67.

Сэмпл: Здесь
Качество видео: HDRip (Исходник видео)
Формат видео: AVI
Видео: XviD, 720x400 (1,80:1) / 24,000 fps / 2111 kbps / 0,305 bit/pixel
Аудио: Russian: AC3 2/0 (L, R) ch, 192 kbps, 48 kHz, 16 bit / многоголосый (к\к «Селена Интернешнл» по заказу ОРТ)

MediaInfo

Общее
Полное имя : F:\Папка для скачиваний в erzsebet.org\Hamlet.1990_HDRip.MVO(ОРТ).avi
Формат : AVI
Формат/Информация : Audio Video Interleave
Профиль формата : OpenDML
Размер файла : 2,18 Гбайт
Продолжительность : 2 ч. 14 м.
Общий поток : 2315 Кбит/сек
Программа кодирования : VirtualDubMod 1.5.10.2 (build 2540/release)
Библиотека кодирования : VirtualDubMod build 2540/release
Видео
Идентификатор : 0
Формат : MPEG-4 Visual
Профиль формата : Advanced [email protected]
Параметр BVOP формата : 1
Параметр QPel формата : Нет
Параметр GMC формата : Без точки перехода
Параметр матрицы формата : Выборочная
Идентификатор кодека : XVID
Идентификатор кодека/Подсказка : XviD
Продолжительность : 2 ч. 14 м.
Битрейт : 2111 Кбит/сек
Ширина : 720 пикселей
Высота : 400 пикселей
Соотношение сторон : 16:9
Частота кадров : 24,000 кадра/сек
Цветовое пространство : YUV
Субдискретизация насыщенности : 4:2:0
Битовая глубина : 8 бит
Тип развёртки : Прогрессивная
Метод сжатия : С потерями
Бит/(Пиксели*Кадры) : 0.305
Размер потока : 1,98 Гбайт (91%)
Библиотека кодирования : XviD 1.2.1 (UTC 2008-12-04)
Аудио
Идентификатор : 1
Формат : AC-3
Формат/Информация : Audio Coding 3
Расширение режима : CM (complete main)
Параметр Endianness формата : Big
Идентификатор кодека : 2000
Продолжительность : 2 ч. 14 м.
Вид битрейта : Постоянный
Битрейт : 192 Кбит/сек
Каналы : 2 канала
Расположение каналов : Front: L R
Частота : 48,0 КГц
Битовая глубина : 16 бит
Метод сжатия : С потерями
Размер потока : 185 Мбайт (8%)
Выравнивание : Разделение по промежуткам
Продолжительность промежутка : 42 мс. (1,00 видеокадр)
Время предзагрузки промежутка : 500 мс.
Заголовок : MVO (ОРТ)

Скриншот c названием фильма

Скриншоты

If your ratio falls below 0.3, you will not be able to download Torrents! More about the rating.

[erzsebet.pl].t209.torrent
Torrent: Registered   [ 2017-12-02 16:18 ]

Download .torrent

Download

11 KB

Status: checked
Completed: 16 times
Size: 2.18 GB
terms.php

#1

02-Dec-2017 16:17

[Profile]  [PM] 
Display posts:    

You cannot post new topics in this forum
You cannot reply to topics in this forum
You cannot edit your posts in this forum
You cannot delete your posts in this forum
You cannot vote in polls in this forum
You cannot attach files in this forum
You can download files in this forum
User agreement
For copyright holders
Advertise on this site

Скачайте на халяву через торрент на трекере erzsebet.pl

!ATTENTION!
The site does not give electronic versions of products, and is engaged only in a collecting and cataloguing of the references sent and published at a forum by our readers. If you are the legal owner of any submitted material and do not wish that the reference to it was in our catalogue, contact us and we shall immediately remove her. Files for an exchange on tracker are given by users of a site, and the administration does not bear the responsibility for their maintenance. The request to not fill in the files protected by copyrights, and also files of the illegal maintenance!