Назад в будущее / Back to the Future (Роберт Земекис / Robert Zemeckis) [1985, США, боевик, комедия, приключения, BDRip] AVO (Андрей Гаврилов - ранний, поздний) + AVO (Алексей Михалев) + AVO (Вартан Дохалов)

DL-List and Torrent activity
Size:  2.33 GB   |    Registered:  2 years 9 months   |    Completed:  16 times
Seeders:  1  
 
   
 
 

erzsebet.org ®

Longevity:
2 years 9 months
Posts:
47596

[Quote] 

Назад в будущее / Back to the Future
Страна: США
Жанр: боевик, комедия, приключения
Год выпуска: 1985
Продолжительность: 01:56:00
Перевод: Авторский (одноголосый закадровый) Андрей Гаврилов (ранний)
Перевод 2: Авторский (одноголосый закадровый) Алексей Михалев
Перевод 3: Авторский (одноголосый закадровый) Вартан Дохалов
Перевод 4: Авторский (одноголосый закадровый) Андрей Гаврилов (поздний)
Субтитры: нет
Режиссер: Роберт Земекис / Robert Zemeckis
В ролях: Майкл Дж. Фокс, Кристофер Ллойд, Лиа Томпсон, Криспин Гловер, Томас Ф. Уилсон, Клодия Уэллс, Марк МакКлюр, Уэнди Джо Спербер, Джордж ДиЧенцо
Описание: Подросток Марти МакФлай живет не лучше жизнью. Над его отцом постоянно издевается начальник Бифф Таннен, а его мать страдает от избыточного веса и алкоголизма. Но однажды Марти узнает от своего друга доктора Эммета Брауна, что тот создал машину времени. Герой случайно активирует ее и отправляется в 1955 год, где случайно сталкивается с молодыми родителями, которым еще только суждено встретиться. Теперь Марти предстоит разыскать Дока, чтобы отправиться в будущее, а заодно воссоединить родителей, которые из-за его вмешательства могут и не встретиться вовсе.
Доп. информация: Выражаю огромную благодарность Нордеру за синхронизацию звуковых дорожек. Дорога с Вартаном Дохаловым найдена в сети.
Сэмпл: http://multi-up.com/1178147
Качество видео: BDRip (Исходник Blu-ray Disc 1080p)
Формат видео: AVI
Видео: XviD 73, 720x384, (1,85:1), 23,976 fps, 2029 Кбит/с, 8 бит, 0.30 bit/pixel
Аудио: Русский (АС3, 2 ch (Front: L R), 48,0 KHz, 192 Kbps) Андрей Гаврилов (ранний)
Аудио 2: Русский (АС3, 2 ch (Front: L R), 48,0 KHz, 192 Kbps) Алексей Михалев
Аудио 3: Русский (АС3, 6 ch (Front: L C R, Side: L R, LFE), 48,0 KHz, 448 Kbps) Вартан Дохалов
Аудио 4: Русский (АС3, 2 ch (Front: L R), 48,0 KHz, 192 Kbps) Андрей Гаврилов (поздний - отдельно)

MediaInfo

Общее
Полное имя : H:\Фильмы на трекер\Назад в будущее (боевик, комедия, приключения 1985 год).avi
Формат : AVI
Формат/Информация : Audio Video Interleave
Профиль формата : OpenDML
Размер файла : 2,18 Гбайт
Продолжительность : 1 ч. 56 м.
Общий поток : 2687 Кбит/сек
Программа кодирования : VirtualDubMod 1.5.10.3 | www.virtualdub-fr.org || (build 2550/release)
Библиотека кодирования : VirtualDubMod build 2550/release
Видео
Идентификатор : 0
Формат : MPEG-4 Visual
Профиль формата : Advanced [email protected]
Параметр BVOP формата : 2
Параметр QPel формата : Нет
Параметр GMC формата : Без точки перехода
Параметр матрицы формата : Выборочная
Идентификатор кодека : XVID
Идентификатор кодека/Подсказка : XviD
Продолжительность : 1 ч. 56 м.
Битрейт : 1831 Кбит/сек
Ширина : 720 пикселей
Высота : 384 пикселя
Соотношение сторон : 1,85:1
Частота кадров : 23,976 (23976/1000) кадра/сек
Цветовое пространство : YUV
Субдискретизация насыщенности : 4:2:0
Битовая глубина : 8 бит
Тип развёртки : Прогрессивная
Метод сжатия : С потерями
Бит/(Пиксели*Кадры) : 0.276
Размер потока : 1,48 Гбайт (68%)
Библиотека кодирования : XviD 73
Аудио #1
Идентификатор : 1
Формат : AC-3
Формат/Информация : Audio Coding 3
Расширение режима : CM (complete main)
Параметр Endianness формата : Big
Идентификатор кодека : 2000
Продолжительность : 1 ч. 56 м.
Вид битрейта : Постоянный
Битрейт : 192 Кбит/сек
Каналы : 2 канала
Расположение каналов : Front: L R
Частота : 48,0 КГц
Частота кадров : 31,250 кадров/сек (1536 spf)
Метод сжатия : С потерями
Размер потока : 159 Мбайт (7%)
Выравнивание : Разделение по промежуткам
Продолжительность промежутка : 42 мс. (1,00 видеокадр)
Время предзагрузки промежутка : 500 мс.
Аудио #2
Идентификатор : 2
Формат : AC-3
Формат/Информация : Audio Coding 3
Расширение режима : CM (complete main)
Параметр Endianness формата : Big
Идентификатор кодека : 2000
Продолжительность : 1 ч. 56 м.
Вид битрейта : Постоянный
Битрейт : 192 Кбит/сек
Каналы : 2 канала
Расположение каналов : Front: L R
Частота : 48,0 КГц
Частота кадров : 31,250 кадров/сек (1536 spf)
Метод сжатия : С потерями
Размер потока : 159 Мбайт (7%)
Выравнивание : Разделение по промежуткам
Продолжительность промежутка : 42 мс. (1,00 видеокадр)
Время предзагрузки промежутка : 500 мс.
Аудио #3
Идентификатор : 3
Формат : AC-3
Формат/Информация : Audio Coding 3
Расширение режима : CM (complete main)
Параметр Endianness формата : Big
Идентификатор кодека : 2000
Продолжительность : 1 ч. 56 м.
Вид битрейта : Постоянный
Битрейт : 448 Кбит/сек
Каналы : 6 каналов
Расположение каналов : Front: L C R, Side: L R, LFE
Частота : 48,0 КГц
Частота кадров : 31,250 кадров/сек (1536 spf)
Метод сжатия : С потерями
Размер потока : 372 Мбайт (17%)
Выравнивание : Разделение по промежуткам
Продолжительность промежутка : 42 мс. (1,00 видеокадр)
Время предзагрузки промежутка : 500 мс.

Скриншот c названием фильма

Скриншоты

If your ratio falls below 0.3, you will not be able to download Torrents! More about the rating.

[erzsebet.pl].t21.torrent
Torrent: Registered   [ 2017-12-02 15:58 ]

Download .torrent

Download

12 KB

Status: checked
Completed: 16 times
Size: 2.33 GB
terms.php

#1

02-Dec-2017 15:58

[Profile]  [PM] 
Display posts:    

You cannot post new topics in this forum
You cannot reply to topics in this forum
You cannot edit your posts in this forum
You cannot delete your posts in this forum
You cannot vote in polls in this forum
You cannot attach files in this forum
You can download files in this forum
User agreement
For copyright holders
Advertise on this site

Скачайте на халяву через торрент на трекере erzsebet.pl

!ATTENTION!
The site does not give electronic versions of products, and is engaged only in a collecting and cataloguing of the references sent and published at a forum by our readers. If you are the legal owner of any submitted material and do not wish that the reference to it was in our catalogue, contact us and we shall immediately remove her. Files for an exchange on tracker are given by users of a site, and the administration does not bear the responsibility for their maintenance. The request to not fill in the files protected by copyrights, and also files of the illegal maintenance!