Джеймс Бонд 007: Бриллианты навсегда / James Bond 007: Diamonds Are Forever (Гай Хэмилтон / Guy Hamilton) [1971, Великобритания, боевик, триллер, криминал, приключения, BDRip] MVO (Лазер Видео) + AVO (Гаврилов) + AVO (Иванов) + AVO (Сонькин)

DL-List and Torrent activity
Size:  1.78 GB   |    Registered:  2 years 9 months   |    Completed:  16 times
Seeders:  3   Leechers:  2   Show peers in full details
 
   
 
 

erzsebet.org ®

Longevity:
2 years 9 months
Posts:
47596

[Quote] 

Джеймс Бонд 007: Бриллианты навсегда / James Bond 007: Diamonds Are Forever
Страна: Великобритания
Жанр: боевик, триллер, криминал, приключения
Год выпуска: 1971
Продолжительность: 02:00:08
Перевод: Профессиональный (многоголосый закадровый) Лазер Видео
Перевод 2: Авторский (одноголосый закадровый) Гаврилов(ранний)
Перевод 3: Авторский (одноголосый закадровый) Иванов(Отдельно)
Перевод 4: Авторский (одноголосый закадровый) Сонькин(Отдельно)
Субтитры: нет
Режиссер: Гай Хэмилтон / Guy Hamilton
В ролях: Шон Коннери, Джилл Ст. Джон, Чарльз Грей, Лана Вуд, Джимми Дин, Брюс Сабот, Паттер Смит, Брюс Гловер, Норман Бёртон, Джозеф Фюрст
Описание: На этот раз Джеймсу Бонду поручено расследовать похищение огромной партии южноафриканских алмазов. Распутывая это непростое дело, Бонд выходит на след своего заклятого врага Блофельда.
Оказывается, алмазы нужны ему для увеличения мощности своего гигантского космического лазера, используя который, он взорвет все атомные боеголовки, ракеты и подводные лодки.
Доп. информация:
В MVO(Лазер Видео) - (текст читали: Владимир Вихров, Александр Новиков, Мария Овчинникова). За Дорожку Спасибо bondbond62
За дорожки Гаврилова,Иванова,Сонькина Спасибо budulai-8
Дорожка Гаврилова (в раздаче alenavova) имеет другой перевод.
Сэмпл: https://www.sendspace.com/file/4p5ii9-Сэмпл сравнения дорожек Лазер Видео : https://yadi.sk/i/JhK5XNI03NHf6T
1 - та которая была
2 - дорожка с нового исходника-Качество видео: BDRip(Отсюда)
Формат видео: AVI
Видео: 720x304 (2.37:1), 23.976 fps, XviD build 73 ~1344 kbps avg, 0.26 bit/pixel
Аудио: 48 kHz, AC3 Dolby Digital, 2/0 (L,R) ch, ~192.00 kbps avg
Аудио 2: 48 kHz, AC3 Dolby Digital, 2/0 (L,R) ch, ~192.00 kbps avg
Аудио 3: 48 kHz, AC3 Dolby Digital, 2/0 (L,R) ch, ~192.00 kbps avg(Отдельно)
Аудио 4: 48 kHz, AC3 Dolby Digital, 2/0 (L,R) ch, ~192.00 kbps avg(Отдельно)

MediaInfo

General
Complete name : L:\Downloads\Bond 007 Diamonds Are Forever (1971)\Bond 007 Diamonds Are Forever (1971).avi
Format : AVI
Format/Info : Audio Video Interleave
File size : 1.46 GiB
Duration : 2h 0mn
Overall bit rate : 1 743 Kbps
Writing application : VirtualDubMod 1.5.10.2 (build 2540/release)
Writing library : VirtualDubMod build 2540/release
Video
ID : 0
Format : MPEG-4 Visual
Format profile : Advanced [email protected]
Format settings, BVOP : 1
Format settings, QPel : No
Format settings, GMC : No warppoints
Format settings, Matrix : Custom
Codec ID : XVID
Codec ID/Hint : XviD
Duration : 2h 0mn
Bit rate : 1 345 Kbps
Width : 720 pixels
Height : 304 pixels
Display aspect ratio : 2.35:1
Frame rate : 23.976 fps
Color space : YUV
Chroma subsampling : 4:2:0
Bit depth : 8 bits
Scan type : Progressive
Compression mode : Lossy
Bits/(Pixel*Frame) : 0.256
Stream size : 1.13 GiB (77%)
Writing library : XviD 73
Audio #1
ID : 1
Format : AC-3
Format/Info : Audio Coding 3
Mode extension : CM (complete main)
Format settings, Endianness : Big
Codec ID : 2000
Duration : 2h 0mn
Bit rate mode : Constant
Bit rate : 192 Kbps
Channel(s) : 2 channels
Channel positions : Front: L R
Sampling rate : 48.0 KHz
Compression mode : Lossy
Stream size : 165 MiB (11%)
Alignment : Split accross interleaves
Interleave, duration : 42 ms (1.00 video frame)
Interleave, preload duratio : 500 ms
Title : MVO.Лазер Видео
Audio #2
ID : 2
Format : AC-3
Format/Info : Audio Coding 3
Mode extension : CM (complete main)
Format settings, Endianness : Big
Codec ID : 2000
Duration : 2h 0mn
Bit rate mode : Constant
Bit rate : 192 Kbps
Channel(s) : 2 channels
Channel positions : Front: L R
Sampling rate : 48.0 KHz
Compression mode : Lossy
Stream size : 165 MiB (11%)
Alignment : Split accross interleaves
Interleave, duration : 42 ms (1.00 video frame)
Interleave, preload duratio : 500 ms
Title : AVO.Gavrilov.ranniy

Мои раздачи Бондов

Фильм 3 Голдфингер (DVO (НТВ) + AVO (Гаврилов, Иванов, Сонькин)
Фильм 4 Шаровая молния (DVO (НТВ) + AVO (Гаврилов,Иванов,Сонькин,Товбин))
Фильм 5 Живешь только дважды (MVO (Laser Video) + AVO (Иванов,Горчаков,Кузнецов,Михалев)+ VO (Неизвестный)
Фильм 7 Бриллианты навсегда MVO (R5 Laser Video) + AVO (Гаврилов) + AVO (Иванов) + AVO (Сонькин)
Фильм (Неофициальный) Никогда не говори никогда AVO (Леонид Володарский) + 2 VO (Неизвестный)
Фильм 8 Живи и дай умереть AVO (Гаврилов, Иванов, Горчаков, Володарский)
Фильм 9 Человек с золотым пистолетом AVO (Гаврилов, Иванов,Михалев,Сонькин,Горчаков) + Неизвестный
Фильм 10 Шпион который меня любил AVO (Сонькин, Гаврилов, Горчаков)
Фильм 11 Лунный гонщик AVO (Гаврилов, Иванов, Володарский)
Фильм 12 Только для твоих глаз DVO (НТВ) + AVO (Гаврилов)2 версии
Фильм 14 Вид на убийство (DVO (НТВ) + AVO(Горчаков, Сонькин, Визгунов) + AVO (Володарский) + VO (Неизвестный1,2)
Фильм 16 Лицензия на убийство (DVO (НТВ) + AVO (Владимир Сонькин) + AVO (Леонид Володарский)
Фильм 17 Золотой глаз (DVO (НТВ) + AVO (Сергей Визгунов)
Фильм 18 Завтра не умрет никогда (DVO (НТВ) + VO(Диктор CDV)
Фильм 19 И целого мира мало AVO (Сергей Визгунов) + AVO (А.Дольский)
Фильм 20 Умри но не сейчас (DVO (НТВ)

Скриншот c названием фильма

Скриншоты

ВНИМАНИЕ ТОРРЕНТ-ФАЙЛ ПЕРЕЗАЛИТ 28.09.2017. Причина:Заменена дороги Лазер Видео на лучшего качества
Просьба перескачать торрент

If your ratio falls below 0.3, you will not be able to download Torrents! More about the rating.

[erzsebet.pl].t210.torrent
Torrent: Registered   [ 2017-12-02 16:18 ]

Download .torrent

Download

19 KB

Status: checked
Completed: 16 times
Size: 1.78 GB
terms.php

#1

02-Dec-2017 16:17

[Profile]  [PM] 
Display posts:    

You cannot post new topics in this forum
You cannot reply to topics in this forum
You cannot edit your posts in this forum
You cannot delete your posts in this forum
You cannot vote in polls in this forum
You cannot attach files in this forum
You can download files in this forum
User agreement
For copyright holders
Advertise on this site

Скачайте на халяву через торрент на трекере erzsebet.pl

!ATTENTION!
The site does not give electronic versions of products, and is engaged only in a collecting and cataloguing of the references sent and published at a forum by our readers. If you are the legal owner of any submitted material and do not wish that the reference to it was in our catalogue, contact us and we shall immediately remove her. Files for an exchange on tracker are given by users of a site, and the administration does not bear the responsibility for their maintenance. The request to not fill in the files protected by copyrights, and also files of the illegal maintenance!