Крестный отец / The Godfather (Френсис Форд Коппола / Francis Ford Coppola) [1972, США, криминальная драма, боевик, BDRip] AVO (Неизвестный К9 )

DL-List and Torrent activity
Size:  2.06 GB   |    Registered:  2 years 9 months   |    Completed:  16 times
Seeders:  11   Leechers:  1   Show peers in full details
 
   
 
 

erzsebet.org ®

Longevity:
2 years 9 months
Posts:
47596

[Quote] 

Крестный отец / The Godfather
Страна: США
Жанр: криминальная драма, боевик
Год выпуска: 1972
Продолжительность: 02:57:09
Перевод: Авторский (одноголосый закадровый) Неизвестный К9
Субтитры: нет
Режиссер: Френсис Форд Коппола / Francis Ford Coppola
В ролях: Марлон Брандо, Аль Пачино, Джеймс Каан, Ричард Кастеллано, Дайэн Китон, Талия Шайр, Роберт Дювалл, Стерлинг Хэйден, Ричард Конте
Описание: Семья Корлеоне сильна и влиятельна в криминальных кругах, все ее члены почитают свои сицилийские традиции. Они живут в Нью-Йорке, их уважают и боятся. В 1945-м году глава семейства дон Корлеоне выдавал дочку замуж. По традиции к отцу невесты можно обращаться с любыми просьбами, а он в день свадьбы дочери не может никому отказать. К дону Корлеоне обращались с разными просьбами. Одним из просителей был певец Джон Фонтэйн. Он очень хотел получить роль в фильме, но режиссер не давал ее из-за личной неприязни к артисту. Дон Корлеоне отправил своего помощника уладить вопрос, но режиссер не уступал. Не привык сдаваться и глава мафии. Сын мафиози Майкл многое повидал в жизни, он прошел войну, смотрел смерти в глаза. Вернувшись домой, Майкл хочет пойти своим путем. Но происходят события, которые заставляют парня изменить свое решение.....
Доп. информация: Дорога синхронизирована Нордер при помощи Sony Vegas . За предоставленную дорожку благодарим - AMIRKHAN NOIR из Баку
Сэмпл: https://yadi.sk/i/7s4wAcCw3NG8aH
Качество видео: BDRip (Исходник BDRemux 1080p)
Формат видео: AVI
Видео: XviD 73, 720x400, (16:9), 23,976 fps, 1462 Кбит/с, 8 бит, 0.21 bit/pixel
Аудио: Русский (АС3, 2 ch (Front: L R), 48,0 KHz, 192 Kbps)

MediaInfo

Общее
Полное имя : D:\Видеофильмы\В и д е о\Крестный отец (криминальная драма 1972 год).avi
Формат : AVI
Формат/Информация : Audio Video Interleave
Профиль формата : OpenDML
Размер файла : 2,06 Гбайт
Продолжительность : 2 ч. 57 м.
Общий поток : 1667 Кбит/сек
Программа кодирования : VirtualDubMod 1.5.10.3 | www.virtualdub-fr.org || (build 2550/release)
Библиотека кодирования : VirtualDubMod build 2550/release
Видео
Идентификатор : 0
Формат : MPEG-4 Visual
Профиль формата : Advanced [email protected]
Параметр BVOP формата : 2
Параметр QPel формата : Нет
Параметр GMC формата : Без точки перехода
Параметр матрицы формата : Выборочная
Идентификатор кодека : XVID
Идентификатор кодека/Подсказка : XviD
Продолжительность : 2 ч. 57 м.
Битрейт : 1462 Кбит/сек
Ширина : 720 пикселей
Высота : 400 пикселей
Соотношение сторон : 16:9
Частота кадров : 23,976 (23976/1000) кадра/сек
Цветовое пространство : YUV
Субдискретизация насыщенности : 4:2:0
Битовая глубина : 8 бит
Тип развёртки : Прогрессивная
Метод сжатия : С потерями
Бит/(Пиксели*Кадры) : 0.212
Размер потока : 1,81 Гбайт (88%)
Библиотека кодирования : XviD 73
Аудио
Идентификатор : 1
Формат : AC-3
Формат/Информация : Audio Coding 3
Расширение режима : CM (complete main)
Параметр Endianness формата : Big
Идентификатор кодека : 2000
Продолжительность : 2 ч. 57 м.
Вид битрейта : Постоянный
Битрейт : 192 Кбит/сек
Каналы : 2 канала
Расположение каналов : Front: L R
Частота : 48,0 КГц
Частота кадров : 31,250 кадров/сек (1536 spf)
Метод сжатия : С потерями
Размер потока : 243 Мбайт (12%)
Выравнивание : Разделение по промежуткам
Продолжительность промежутка : 42 мс. (1,00 видеокадр)
Время предзагрузки промежутка : 500 мс.

Скриншот c названием фильма

Скриншоты

If your ratio falls below 0.3, you will not be able to download Torrents! More about the rating.

[erzsebet.pl].t214.torrent
Torrent: Registered   [ 2017-12-02 16:18 ]

Download .torrent

Download

11 KB

Status: checked
Completed: 16 times
Size: 2.06 GB
terms.php

#1

02-Dec-2017 16:17

[Profile]  [PM] 
Display posts:    

You cannot post new topics in this forum
You cannot reply to topics in this forum
You cannot edit your posts in this forum
You cannot delete your posts in this forum
You cannot vote in polls in this forum
You cannot attach files in this forum
You can download files in this forum
User agreement
For copyright holders
Advertise on this site

Скачайте на халяву через торрент на трекере erzsebet.pl

!ATTENTION!
The site does not give electronic versions of products, and is engaged only in a collecting and cataloguing of the references sent and published at a forum by our readers. If you are the legal owner of any submitted material and do not wish that the reference to it was in our catalogue, contact us and we shall immediately remove her. Files for an exchange on tracker are given by users of a site, and the administration does not bear the responsibility for their maintenance. The request to not fill in the files protected by copyrights, and also files of the illegal maintenance!