Крестный отец / The Godfather (Френсис Форд Коппола / Francis Ford Coppola) [1972, США, криминальная драма, боевик, BDRip] AVO (Неизвестный К9 )

Reply to topic
DL-List and Torrent activity
Size:  2.06 GB   |    Registered:  3 years 3 months   |    Completed:  16 times

Seeder not seen: 3 years 3 months

 
   
 
 
Author Message

erzsebet.org ®

Longevity: 3 years 2 months

Posts: 47596

Post 02-Dec-2017 16:17

[Quote]

Крестный отец / The Godfather
Страна: США
Жанр: криминальная драма, боевик
Год выпуска: 1972
Продолжительность: 02:57:09
Перевод: Авторский (одноголосый закадровый) Неизвестный К9
Субтитры: нет
Режиссер: Френсис Форд Коппола / Francis Ford Coppola
В ролях: Марлон Брандо, Аль Пачино, Джеймс Каан, Ричард Кастеллано, Дайэн Китон, Талия Шайр, Роберт Дювалл, Стерлинг Хэйден, Ричард Конте
Описание: Семья Корлеоне сильна и влиятельна в криминальных кругах, все ее члены почитают свои сицилийские традиции. Они живут в Нью-Йорке, их уважают и боятся. В 1945-м году глава семейства дон Корлеоне выдавал дочку замуж. По традиции к отцу невесты можно обращаться с любыми просьбами, а он в день свадьбы дочери не может никому отказать. К дону Корлеоне обращались с разными просьбами. Одним из просителей был певец Джон Фонтэйн. Он очень хотел получить роль в фильме, но режиссер не давал ее из-за личной неприязни к артисту. Дон Корлеоне отправил своего помощника уладить вопрос, но режиссер не уступал. Не привык сдаваться и глава мафии. Сын мафиози Майкл многое повидал в жизни, он прошел войну, смотрел смерти в глаза. Вернувшись домой, Майкл хочет пойти своим путем. Но происходят события, которые заставляют парня изменить свое решение.....
Доп. информация: Дорога синхронизирована Нордер при помощи Sony Vegas . За предоставленную дорожку благодарим - AMIRKHAN NOIR из Баку
Сэмпл: https://yadi.sk/i/7s4wAcCw3NG8aH
Качество видео: BDRip (Исходник BDRemux 1080p)
Формат видео: AVI
Видео: XviD 73, 720x400, (16:9), 23,976 fps, 1462 Кбит/с, 8 бит, 0.21 bit/pixel
Аудио: Русский (АС3, 2 ch (Front: L R), 48,0 KHz, 192 Kbps)

MediaInfo

Общее
Полное имя : D:\Видеофильмы\В и д е о\Крестный отец (криминальная драма 1972 год).avi
Формат : AVI
Формат/Информация : Audio Video Interleave
Профиль формата : OpenDML
Размер файла : 2,06 Гбайт
Продолжительность : 2 ч. 57 м.
Общий поток : 1667 Кбит/сек
Программа кодирования : VirtualDubMod 1.5.10.3 | www.virtualdub-fr.org || (build 2550/release)
Библиотека кодирования : VirtualDubMod build 2550/release
Видео
Идентификатор : 0
Формат : MPEG-4 Visual
Профиль формата : Advanced [email protected]
Параметр BVOP формата : 2
Параметр QPel формата : Нет
Параметр GMC формата : Без точки перехода
Параметр матрицы формата : Выборочная
Идентификатор кодека : XVID
Идентификатор кодека/Подсказка : XviD
Продолжительность : 2 ч. 57 м.
Битрейт : 1462 Кбит/сек
Ширина : 720 пикселей
Высота : 400 пикселей
Соотношение сторон : 16:9
Частота кадров : 23,976 (23976/1000) кадра/сек
Цветовое пространство : YUV
Субдискретизация насыщенности : 4:2:0
Битовая глубина : 8 бит
Тип развёртки : Прогрессивная
Метод сжатия : С потерями
Бит/(Пиксели*Кадры) : 0.212
Размер потока : 1,81 Гбайт (88%)
Библиотека кодирования : XviD 73
Аудио
Идентификатор : 1
Формат : AC-3
Формат/Информация : Audio Coding 3
Расширение режима : CM (complete main)
Параметр Endianness формата : Big
Идентификатор кодека : 2000
Продолжительность : 2 ч. 57 м.
Вид битрейта : Постоянный
Битрейт : 192 Кбит/сек
Каналы : 2 канала
Расположение каналов : Front: L R
Частота : 48,0 КГц
Частота кадров : 31,250 кадров/сек (1536 spf)
Метод сжатия : С потерями
Размер потока : 243 Мбайт (12%)
Выравнивание : Разделение по промежуткам
Продолжительность промежутка : 42 мс. (1,00 видеокадр)
Время предзагрузки промежутка : 500 мс.

Скриншот c названием фильма

Скриншоты

[erzsebet.pl].t214.torrent
Torrent: Registered [ 2017-12-02 16:18 ] · 7CAB20E179B3F4A67B32B71F58272F6C88DFC54E

Download .torrent

Download

11 KB

Status: checked
Completed: 16 times
Size: 2.06 GB
terms.php
[Profile] [PM]
Display posts:    
Reply to topic

Current time is: 03-Mar 00:02

All times are UTC ± 0



You cannot post new topics in this forum
You cannot reply to topics in this forum
You cannot edit your posts in this forum
You cannot delete your posts in this forum
You cannot vote in polls in this forum
You cannot attach files in this forum
You can download files in this forum