Афера / The Sting (Джордж Рой Хилл / George Roy Hill) [1973, США, комедия, криминал, BDRip] AVO (Неизвестный К9 )

DL-List and Torrent activity
Size:  1.46 GB   |    Registered:  2 years 9 months   |    Completed:  16 times
Seeders:  5   Leechers:  1   Show peers in full details
 
   
 
 

erzsebet.org ®

Longevity:
2 years 9 months
Posts:
47596

[Quote] 

Афера / The Sting
Страна: США
Жанр: комедия, криминал
Год выпуска: 1973
Продолжительность: 02:09:16
Перевод: Авторский (одноголосый закадровый) Неизвестный К9
Субтитры: нет
Режиссер: Джордж Рой Хилл / George Roy Hill
В ролях: Пол Ньюман, Роберт Шоу, Роберт Редфорд, Чарльз Дёрнинг, Рей Уолстон, Айлин Бреннан, Харольд Гулд, Джон Хеффернан, Дэна Элкар
Описание: Однажды, два гангстера Лютер Коулман и Джонни Хукер случайно обкрадывают курьера, работающего на самого босса мафиозного мира. Так они попадают в настоящую передрягу, ведь тот сразу организовывает погоню за ними. Он хочет вернуть свое имущество и не желает отдавать его двум ворам. В результате, Лютера в затяжной перестрелке убивают, а Джонни решает отомстить за своего лучшего друга. За помощью он обращается к профессиональному аферисту по имени Генри. Вместе они разрабатывают очень сложный план аферы и тщательно исследуют слабые места мафиози. Им удается выяснить, что босс очень любит покер, на чем в дальнейшем и основывается их продуманный план. Так парочка аферистов проворачивает крупнейший обман и даже имитирует собственную смерть. Стоит отметить, что эта легендарная экранная афера вышла в историю своей продуманностью и точностью каждого действия....
Доп. информация: Дорога синхронизирована Нордер при помощи Sony Vegas . За предоставленную дорожку благодарим - AMIRKHAN NOIR из Баку
Видеоряд отсюда -- http://erzsebet.org/forum/viewtopic.php?t=4281803
Сэмпл: http://multi-up.com/1169891
Качество видео: BDRip (Исходник Blu-ray disc 1080p)
Формат видео: AVI
Видео: XviD, 720x384, (1,85:1), 23,976 fps, 1414 Кбит/с, 8 бит, 0.22 bit/pixel
Аудио: Русский (АС3, 2 ch (Front: L R), 48,0 KHz, 192 Kbps)

MediaInfo

Общее
Полное имя : D:\Видеофильмы\В и д е о\Афера (драма, комедия, криминал 1973 год).avi
Формат : AVI
Формат/Информация : Audio Video Interleave
Размер файла : 1,46 Гбайт
Продолжительность : 2 ч. 9 м.
Общий поток : 1615 Кбит/сек
Программа кодирования : VirtualDubMod 1.5.10.2 (build 2540/release)
Библиотека кодирования : VirtualDubMod build 2540/release
Видео
Идентификатор : 0
Формат : MPEG-4 Visual
Профиль формата : Advanced [email protected]
Параметр BVOP формата : 1
Параметр QPel формата : Нет
Параметр GMC формата : Без точки перехода
Параметр матрицы формата : Выборочная
Идентификатор кодека : XVID
Идентификатор кодека/Подсказка : XviD
Продолжительность : 2 ч. 9 м.
Битрейт : 1414 Кбит/сек
Ширина : 704 пикселя
Высота : 384 пикселя
Соотношение сторон : 1,85:1
Частота кадров : 23,976 (23976/1000) кадра/сек
Цветовое пространство : YUV
Субдискретизация насыщенности : 4:2:0
Битовая глубина : 8 бит
Тип развёртки : Прогрессивная
Метод сжатия : С потерями
Бит/(Пиксели*Кадры) : 0.218
Размер потока : 1,28 Гбайт (88%)
Библиотека кодирования : XviD 64
Аудио
Идентификатор : 1
Формат : AC-3
Формат/Информация : Audio Coding 3
Расширение режима : CM (complete main)
Параметр Endianness формата : Big
Идентификатор кодека : 2000
Продолжительность : 2 ч. 9 м.
Вид битрейта : Постоянный
Битрейт : 192 Кбит/сек
Каналы : 2 канала
Расположение каналов : Front: L R
Частота : 48,0 КГц
Частота кадров : 31,250 кадров/сек (1536 spf)
Метод сжатия : С потерями
Размер потока : 178 Мбайт (12%)
Выравнивание : Разделение по промежуткам
Продолжительность промежутка : 42 мс. (1,00 видеокадр)
Время предзагрузки промежутка : 500 мс.

Скриншот c названием фильма

Скриншоты

If your ratio falls below 0.3, you will not be able to download Torrents! More about the rating.

[erzsebet.pl].t215.torrent
Torrent: Registered   [ 2017-12-02 16:18 ]

Download .torrent

Download

15 KB

Status: checked
Completed: 16 times
Size: 1.46 GB
terms.php

#1

02-Dec-2017 16:17

[Profile]  [PM] 
Display posts:    

You cannot post new topics in this forum
You cannot reply to topics in this forum
You cannot edit your posts in this forum
You cannot delete your posts in this forum
You cannot vote in polls in this forum
You cannot attach files in this forum
You can download files in this forum
User agreement
For copyright holders
Advertise on this site

Скачайте на халяву через торрент на трекере erzsebet.pl

!ATTENTION!
The site does not give electronic versions of products, and is engaged only in a collecting and cataloguing of the references sent and published at a forum by our readers. If you are the legal owner of any submitted material and do not wish that the reference to it was in our catalogue, contact us and we shall immediately remove her. Files for an exchange on tracker are given by users of a site, and the administration does not bear the responsibility for their maintenance. The request to not fill in the files protected by copyrights, and also files of the illegal maintenance!