Изгоняющий Дьявола / Экзорцист / Театральная Версия / The Exorcist / Theatrical Cut (Уильям Фридкин / William Friedkin) [1973, США, ужасы, мистика, триллер, DVDRip] AVO (Василий Горчаков)

Reply to topic
DL-List and Torrent activity
Size:  1.45 GB   |    Registered:  3 years 3 months   |    Completed:  16 times

Seeder not seen: 3 years 3 months

 
   
 
 
Author Message

erzsebet.org ®

Longevity: 3 years 2 months

Posts: 47596

Post 02-Dec-2017 16:17

[Quote]

Изгоняющий Дьявола / Экзорцист / Театральная Версия / The Exorcist / Theatrical Cut
Страна: США
Жанр: ужасы, мистика, триллер
Год выпуска: 1973
Продолжительность: 01:56:46
Перевод: Авторский (одноголосый закадровый) Василий Горчаков
Субтитры: нет
Режиссер: Уильям Фридкин / William Friedkin
В ролях: Джейсон Миллер, Эллен Бёрстин, Макс фон Сюдов, Ли Дж. Кобб, Китти Уинн, Джек МакГоурэн, Линда Блэр, Реверенд Уильям О`Мэлли, Бартон Хейман
Описание: Престарелый священник Ланкастер Меррин обнаруживает голову древнего демона Пазузу. Одновременно с этим на другом конце планеты юная дочь актрисы Крис МакНил страдает от странных припадков, вызванных, как полагают врачи, неизвестным поражением мозга. Когда наука разводит руками, любые способы сгодятся, чтобы спасти любимого ребенка. Поэтому Крис приходится обратиться к священникам. Как преодолеть неизвестное ? Где скрыт корень зла..?
Доп. информация: Дорога синхронизирована Нордер при помощи Sony Vegas . За предоставленную дорожку благодарим - AMIRKHAN NOIR из Баку
Видеоряд отсюда -- http://erzsebet.org/forum/viewtopic.php?t=3559114
Сэмпл: http://multi-up.com/1169786
Качество видео: DVDRip
Формат видео: AVI
Видео: XviD, 720x400, (16:9), 23,976 fps, 1578 Кбит/с, 8 бит, 0.22 bit/pixel
Аудио: Русский (АС3, 2 ch (Front: L R), 48,0 KHz, 192 Kbps)

MediaInfo

Общее
Полное имя : D:\Видеофильмы\В и д е о\Изгоняющий дьявола (ужасы, мистика 1973 год).avi
Формат : AVI
Формат/Информация : Audio Video Interleave
Размер файла : 1,45 Гбайт
Продолжительность : 1 ч. 56 м.
Общий поток : 1780 Кбит/сек
Программа кодирования : VirtualDubMod 1.5.10.2 (build 2540/release)
Библиотека кодирования : VirtualDubMod build 2540/release
Видео
Идентификатор : 0
Формат : MPEG-4 Visual
Профиль формата : Advanced [email protected]
Параметр BVOP формата : 1
Параметр QPel формата : Нет
Параметр GMC формата : Без точки перехода
Параметр матрицы формата : Выборочная
Идентификатор кодека : XVID
Идентификатор кодека/Подсказка : XviD
Продолжительность : 1 ч. 56 м.
Битрейт : 1578 Кбит/сек
Ширина : 720 пикселей
Высота : 400 пикселей
Соотношение сторон : 16:9
Частота кадров : 25,000 кадров/сек
Цветовое пространство : YUV
Субдискретизация насыщенности : 4:2:0
Битовая глубина : 8 бит
Тип развёртки : Прогрессивная
Метод сжатия : С потерями
Бит/(Пиксели*Кадры) : 0.219
Размер потока : 1,29 Гбайт (89%)
Библиотека кодирования : XviD 1.2.1 (UTC 2008-12-04)
Аудио
Идентификатор : 1
Формат : AC-3
Формат/Информация : Audio Coding 3
Расширение режима : CM (complete main)
Параметр Endianness формата : Big
Идентификатор кодека : 2000
Продолжительность : 1 ч. 56 м.
Вид битрейта : Постоянный
Битрейт : 192 Кбит/сек
Каналы : 2 канала
Расположение каналов : Front: L R
Частота : 48,0 КГц
Частота кадров : 31,250 кадров/сек (1536 spf)
Метод сжатия : С потерями
Размер потока : 160 Мбайт (11%)
Выравнивание : Разделение по промежуткам
Продолжительность промежутка : 40 мс. (1,00 видеокадр)
Время предзагрузки промежутка : 500 мс.

Скриншот c названием фильма

Скриншоты

[erzsebet.pl].t216.torrent
Torrent: Registered [ 2017-12-02 16:18 ] · 42774BC98DF3ED86547BAF0D11A90FD1E2717252

Download .torrent

Download

15 KB

Status: checked
Completed: 16 times
Size: 1.45 GB
terms.php
[Profile] [PM]
Display posts:    
Reply to topic

Current time is: 07-Mar 21:36

All times are UTC ± 0



You cannot post new topics in this forum
You cannot reply to topics in this forum
You cannot edit your posts in this forum
You cannot delete your posts in this forum
You cannot vote in polls in this forum
You cannot attach files in this forum
You can download files in this forum