Сокровища Сьерра Мадре / The Treasure of the Sierra Madre (Джон Хьюстон / John Huston) [1948, США, приключения, драма, вестерн, BDRip] VO (Тур)

DL-List and Torrent activity
Size:  1.45 GB   |    Registered:  2 years 9 months   |    Completed:  16 times
Seeders:  5  
 
   
 
 

erzsebet.org ®

Longevity:
2 years 9 months
Posts:
47596

[Quote] 

Сокровища Сьерра Мадре / The Treasure of the Sierra Madre
Страна: США
Жанр: приключения, драма, вестерн
Год выпуска: 1948
Продолжительность: 2:06:08
Перевод: Одноголосый закадровый Тур
Субтитры: нет
Режиссер: Джон Хьюстон / John Huston
В ролях: Хамфри Богарт, Уолтер Хьюстон, Тим Холт, Брюс Беннетт, Бартон МакЛэйн, Альфонсо Бедойа, Артуро Сото Рангель, Маргарито Луна, Мануэль Донде
Описание: Доббс и Кертин встречаются в Мексике и находят неплохую работу. Но вскоре на них выходит старатель по имени Говард, он убеждает мужчин, что в местных горах полно золота, и они втроем могут заработать целое состояние, если отправятся туда вместе. Три новоявленных друга отправляются в долгий путь в поисках богатства и счастья. Им удается найти золотую жилу, но трудности только начинаются. Вначале им предстоят иметь дело с бандитами, а потом с самым сложным – жадностью, которая с каждым днем только накаляет отношения между ними и угрожает превратить успех в катастрофу....
Доп. информация: Дорога синхронизирована Нордер при помощи Sony Vegas . За предоставленную дорожку благодарим - AMIRKHAN NOIR из Баку
Сэмпл: http://multi-up.com/1169742
Качество видео: BDRip (Исходник BDRemux 1080p)
Формат видео: AVI
Видео: XviD 73, 640x464, (1,38:1), 23,976 fps, 1445 Кбит/с, 8 бит, 0.20 bit/pixel
Аудио: Русский (АС3, 2 ch (Front: L R), 48,0 KHz, 192 Kbps)

MediaInfo

Общее
Полное имя : D:\Видеофильмы\В и д е о\Сокровища Сьерра Мадре (приключения, драма, вестерн 1948 год).avi
Формат : AVI
Формат/Информация : Audio Video Interleave
Размер файла : 1,45 Гбайт
Продолжительность : 2 ч. 6 м.
Общий поток : 1646 Кбит/сек
Программа кодирования : VirtualDubMod 1.5.10.3 | www.virtualdub-fr.org || (build 2550/release)
Библиотека кодирования : VirtualDubMod build 2550/release
Видео
Идентификатор : 0
Формат : MPEG-4 Visual
Профиль формата : Advanced [email protected]
Параметр BVOP формата : 2
Параметр QPel формата : Нет
Параметр GMC формата : Без точки перехода
Параметр матрицы формата : Выборочная
Идентификатор кодека : XVID
Идентификатор кодека/Подсказка : XviD
Продолжительность : 2 ч. 6 м.
Битрейт : 1445 Кбит/сек
Ширина : 640 пикселей
Высота : 464 пикселя
Соотношение сторон : 1,379
Частота кадров : 23,976 (23976/1000) кадра/сек
Цветовое пространство : YUV
Субдискретизация насыщенности : 4:2:0
Битовая глубина : 8 бит
Тип развёртки : Прогрессивная
Метод сжатия : С потерями
Бит/(Пиксели*Кадры) : 0.203
Размер потока : 1,27 Гбайт (88%)
Библиотека кодирования : XviD 73
Аудио
Идентификатор : 1
Формат : AC-3
Формат/Информация : Audio Coding 3
Расширение режима : CM (complete main)
Параметр Endianness формата : Big
Идентификатор кодека : 2000
Продолжительность : 2 ч. 6 м.
Вид битрейта : Постоянный
Битрейт : 192 Кбит/сек
Каналы : 2 канала
Расположение каналов : Front: L R
Частота : 48,0 КГц
Частота кадров : 31,250 кадров/сек (1536 spf)
Метод сжатия : С потерями
Размер потока : 173 Мбайт (12%)
Выравнивание : Разделение по промежуткам
Продолжительность промежутка : 42 мс. (1,00 видеокадр)
Время предзагрузки промежутка : 500 мс.

Скриншот c названием фильма

Скриншоты

If your ratio falls below 0.3, you will not be able to download Torrents! More about the rating.

[erzsebet.pl].t218.torrent
Torrent: Registered   [ 2017-12-02 16:18 ]

Download .torrent

Download

15 KB

Status: checked
Completed: 16 times
Size: 1.45 GB
terms.php

#1

02-Dec-2017 16:17

[Profile]  [PM] 
Display posts:    

You cannot post new topics in this forum
You cannot reply to topics in this forum
You cannot edit your posts in this forum
You cannot delete your posts in this forum
You cannot vote in polls in this forum
You cannot attach files in this forum
You can download files in this forum
User agreement
For copyright holders
Advertise on this site

Скачайте на халяву через торрент на трекере erzsebet.pl

!ATTENTION!
The site does not give electronic versions of products, and is engaged only in a collecting and cataloguing of the references sent and published at a forum by our readers. If you are the legal owner of any submitted material and do not wish that the reference to it was in our catalogue, contact us and we shall immediately remove her. Files for an exchange on tracker are given by users of a site, and the administration does not bear the responsibility for their maintenance. The request to not fill in the files protected by copyrights, and also files of the illegal maintenance!