Что делали женщины, когда мужчины гуляли по Луне? / Que faisaient les femmes pendant que l'homme marchait sur la lune? (Крис Вандер Стаппен / Chris Vander Stappen) [2000, Франция, Канада, Бельгия, Швейцария, драма, DVDRip-AVC] AVO (Алексеев) +

DL-List and Torrent activity
Size:  1.82 GB   |    Registered:  2 years 9 months   |    Completed:  16 times
Seeders:  1  
 
   
 
 

erzsebet.org ®

Longevity:
2 years 9 months
Posts:
47596

[Quote] 

Что делали женщины, когда мужчины гуляли по Луне?Que faisaient les femmes pendant que l'homme marchait sur la lune? Страна: Франция, Канада, Бельгия, Швейцария
Жанр: драма
Год выпуска: 2000
Продолжительность: 01:40:54-Перевод: Авторский (одноголосый закадровый) Антон Алексеев
Субтитры: английские
Оригинальная аудиодорожка: французский-Режиссер: Крис Вандер Стаппен / Chris Vander Stappen
В ролях: Мари Бюнель, Элен Венсан, Цилла Шелтон, Мими Мати, Маша Гренон, Кристиан Крахай, Эммануэль Билодо-Описание:
Действие фильма происходит в 1969 году. Саша живёт в Монреале уже два года вдали от семьи, оставшейся в Бельгии. Мать думает, что Саша учится на доктора, но на самом деле Саша давно забросила учёбу, так как профессия врача ей отвратительна. Но это не единственная плохая новость для её матери. В Монреале Саша встретила свою любовь — Одиль. Одиль призывает Сашу позвонить домой и всё рассказать, но та не в силах это сделать. Разозлённая, Одиль бросает Сашу, сказав, что вернётся, когда Саша расскажет всю правду матери или же не вернётся никогда, разве только человек прилетит на Луну.-Сэмпл-Качество видео: DVDRip-AVC
Формат видео: MKV
Видео: MPEG4 Video (H264) 708x334 (629:334) 23.976fps ~ 2145 Kbps
Аудио: 48 kHz, AC3 Dolby Digital, 2/0 (L,R) ch, ~192 kbps
Аудио 2: 48 kHz, AC3 Dolby Digital, 2/0 (L,R) ch, ~192 kbps
Формат субтитров: hardsub (неотключаемые)

MediaInfo

General
Complete name : G:\Que.faisaient.les.femmes.2000.mkv
Format : Matroska
Format version : Version 4 / Version 2
File size : 1.82 GiB
Duration : 1h 40mn
Overall bit rate : 2 580 Kbps
Encoded date : UTC 2017-12-01 03:54:04
Writing application : mkvmerge v6.6.0 ('The Edge Of The In Between') built on Dec 1 2013 17:55:00
Writing library : libebml v1.3.0 + libmatroska v1.4.1
Video
ID : 1
Format : AVC
Format/Info : Advanced Video Codec
Format profile : [email protected]
Format settings, CABAC : Yes
Format settings, ReFrames : 9 frames
Codec ID : V_MPEG4/ISO/AVC
Duration : 1h 40mn
Bit rate : 2 145 Kbps
Width : 708 pixels
Height : 334 pixels
Display aspect ratio : 1.883
Original display aspect ratio : 1.884
Frame rate mode : Constant
Frame rate : 23.976 fps
Color space : YUV
Chroma subsampling : 4:2:0
Bit depth : 8 bits
Scan type : Progressive
Bits/(Pixel*Frame) : 0.378
Stream size : 1.51 GiB (83%)
Writing library : x264 core 130 r2273 b3065e6
Encoding settings : cabac=1 / ref=9 / deblock=1:-3:-3 / analyse=0x3:0x133 / me=umh / subme=9 / psy=1 / psy_rd=1.00:0.00 / mixed_ref=1 / me_range=24 / chroma_me=1 / trellis=2 / 8x8dct=1 / cqm=0 / deadzone=21,11 / fast_pskip=0 / chroma_qp_offset=-2 / threads=12 / lookahead_threads=1 / sliced_threads=0 / nr=0 / decimate=1 / interlaced=0 / bluray_compat=0 / constrained_intra=0 / bframes=6 / b_pyramid=2 / b_adapt=2 / b_bias=0 / direct=3 / weightb=1 / open_gop=0 / weightp=2 / keyint=240 / keyint_min=24 / scenecut=40 / intra_refresh=0 / rc_lookahead=60 / rc=crf / mbtree=1 / crf=16.3 / qcomp=0.60 / qpmin=0 / qpmax=69 / qpstep=4 / ip_ratio=1.40 / aq=1:1.00
Language : English
Default : Yes
Forced : No
Color primaries : BT.601 NTSC
Transfer characteristics : BT.709
Matrix coefficients : BT.601
Color range : Limited
Audio #1
ID : 2
Format : AC-3
Format/Info : Audio Coding 3
Mode extension : CM (complete main)
Format settings, Endianness : Big
Codec ID : A_AC3
Duration : 1h 40mn
Bit rate mode : Constant
Bit rate : 192 Kbps
Channel(s) : 2 channels
Channel positions : Front: L R
Sampling rate : 48.0 KHz
Bit depth : 16 bits
Compression mode : Lossy
Stream size : 139 MiB (7%)
Language : Russian
Default : No
Forced : No
Audio #2
ID : 3
Format : AC-3
Format/Info : Audio Coding 3
Mode extension : CM (complete main)
Format settings, Endianness : Big
Codec ID : A_AC3
Duration : 1h 40mn
Bit rate mode : Constant
Bit rate : 192 Kbps
Channel(s) : 2 channels
Channel positions : Front: L R
Sampling rate : 48.0 KHz
Bit depth : 16 bits
Compression mode : Lossy
Stream size : 139 MiB (7%)
Language : French
Default : No
Forced : No
Menu
00:00:00.000 : en:Chapter 1
00:00:43.376 : en:Chapter 2
00:22:36.855 : en:Chapter 3
00:38:12.873 : en:Chapter 4
00:49:58.662 : en:Chapter 5
01:01:45.702 : en:Chapter 6
01:12:57.164 : en:Chapter 7
01:37:23.295 : en:Chapter 8

Скриншот c названием фильма

Скриншоты

If your ratio falls below 0.3, you will not be able to download Torrents! More about the rating.

[erzsebet.pl].t22.torrent
Torrent: Registered   [ 2017-12-02 15:58 ]

Download .torrent

Download

19 KB

Status: checked
Completed: 16 times
Size: 1.82 GB
terms.php

#1

02-Dec-2017 15:58

[Profile]  [PM] 
Display posts:    

You cannot post new topics in this forum
You cannot reply to topics in this forum
You cannot edit your posts in this forum
You cannot delete your posts in this forum
You cannot vote in polls in this forum
You cannot attach files in this forum
You can download files in this forum
User agreement
For copyright holders
Advertise on this site

Скачайте на халяву через торрент на трекере erzsebet.pl

!ATTENTION!
The site does not give electronic versions of products, and is engaged only in a collecting and cataloguing of the references sent and published at a forum by our readers. If you are the legal owner of any submitted material and do not wish that the reference to it was in our catalogue, contact us and we shall immediately remove her. Files for an exchange on tracker are given by users of a site, and the administration does not bear the responsibility for their maintenance. The request to not fill in the files protected by copyrights, and also files of the illegal maintenance!