Красивая горничная ищет работу... / Красивая горничная предлагает услуги... / Cameriera bella presenza offresi... (Джорджио Пастина / Giorgio Pastina) [1951, Италия, комедия, DVDRip] Sub Rus (Urasiko) + Original Ita

 

erzsebet.org ®

Longevity:
2 years 9 months
Posts:
47596

[Quote] 

Красивая горничная ищет работу... / Красивая горничная предлагает услуги... / Cameriera bella presenza offresi...
Страна: Италия
Жанр: Комедия
Год выпуска: 1951
Продолжительность: 01:37:57
Перевод: Субтитры Urasiko
Субтитры: русские
Оригинальная аудиодорожка: итальянский
Режиссер: Джорджио Пастина / Giorgio Pastina
В ролях: Эльза Мерлини, Джино Черви, Джульетта Мазина, Альберто Сорди, Эдуардо Де Филиппо, Пеппино Де Филиппо, Витторио Де Сика, Альдо Фабрици, Иза Миранда, Карло Нинки
Описание: Мария помолвлена с Берто уже пятнадцати лет. У Берто нет постоянной работы, поэтому он ждет смерти своего дяди Маттео, чтобы получить наследство. Тем временем Мария находит работу, сначала в одном доме, затем в доме актера и его жены, которые находятся на грани развода и, наконец, в доме Рафаэле, который хочет жениться на ней. И тут дядя Маттео умирает...
Доп. информация: Релиз
Перевод с итальянского языка Urasiko
Сэмпл: http://multi-up.com/1169630
Качество видео: DVDRip
Формат видео: AVI
Видео: 624x464 (1.34:1), 25.00 fps, XviD MPEG-4, ~1805 kbps avg, 0.25 bit/pixel
Аудио: AC3 Dolby Digital, 2/0 (L,R) ch, 48 kHz, 192 kbps
Формат субтитров: softsub (SRT)

MediaInfo

Общее
Полное имя : E:\CD\Cameriera bella presenza offresi\Cameriera bella presenza offresi... (1951).avi
Формат : AVI
Формат/Информация : Audio Video Interleave
Размер файла : 1,37 Гбайт
Продолжительность : 1 ч. 37 м.
Общий поток : 2007 Кбит/сек
Программа кодирования : VirtualDubMod 1.5.10.2 (build 2540/release)
Библиотека кодирования : VirtualDubMod build 2540/release
Видео
Идентификатор : 0
Формат : MPEG-4 Visual
Профиль формата : Advanced [email protected]
Параметр BVOP формата : 1
Параметр QPel формата : Нет
Параметр GMC формата : Без точки перехода
Параметр матрицы формата : Выборочная
Идентификатор кодека : XVID
Идентификатор кодека/Подсказка : XviD
Продолжительность : 1 ч. 37 м.
Битрейт : 1806 Кбит/сек
Ширина : 624 пикселя
Высота : 464 пикселя
Соотношение сторон : 4:3
Частота кадров : 25,000 кадров/сек
Цветовое пространство : YUV
Субдискретизация насыщенности : 4:2:0
Битовая глубина : 8 бит
Тип развёртки : Прогрессивная
Метод сжатия : С потерями
Бит/(Пиксели*Кадры) : 0.249
Размер потока : 1,24 Гбайт (90%)
Библиотека кодирования : XviD 58
Аудио
Идентификатор : 1
Формат : AC-3
Формат/Информация : Audio Coding 3
Расширение режима : CM (complete main)
Параметр Endianness формата : Big
Идентификатор кодека : 2000
Продолжительность : 1 ч. 37 м.
Вид битрейта : Постоянный
Битрейт : 192 Кбит/сек
Каналы : 2 канала
Расположение каналов : Front: L R
Частота : 48,0 КГц
Частота кадров : 31,250 кадров/сек (1536 spf)
Метод сжатия : С потерями
Размер потока : 135 Мбайт (10%)
Выравнивание : Разделение по промежуткам
Продолжительность промежутка : 40 мс. (1,00 видеокадр)
Время предзагрузки промежутка : 500 мс.

Фрагмент русских субтитров фильма

16
00:03:58,767 --> 00:04:02,282
- И как настроение? - Отвратительное.
- Преотвратительнейшее.
17
00:04:03,127 --> 00:04:04,765
- Пока.
- Пока, Берто.
18
00:04:17,447 --> 00:04:20,837
Знаешь, ты великолепна.
Не хочешь покататься на лодке?
19
00:04:23,527 --> 00:04:25,643
Официант. Официант!
20
00:04:28,607 --> 00:04:30,279
Послушай, какая красивая музыка.
21
00:04:33,247 --> 00:04:38,880
Ну нет, дорогая, прежде чем дуться,
выслушай, что на самом деле произошло.
22
00:04:39,007 --> 00:04:42,283
Да, признаю, я опоздал,
но была причина.
23
00:04:42,407 --> 00:04:44,204
Сейчас случится беда.
24
00:04:44,327 --> 00:04:47,842
Хотел сделать тебе сюрприз,
но, раз такое дело, то расскажу всё.
25
00:04:47,967 --> 00:04:52,802
Я нашел работу,
в конце концов, это грандиозно.
26
00:04:53,487 --> 00:04:56,479
И я работал сегодня, в воскресенье.
27
00:04:56,847 --> 00:05:01,159
Пьяница, а что ты говорил
в прошлое воскресенье Донато?

Скриншот c названием фильма

Скриншоты

[erzsebet.pl].t223.torrent
Torrent: Not registered

Download .torrent

Download

14 KB

Added: 2017-12-02 16:17
Downloaded: 16 times  [ Show DL-List ]
   

#1

02-Dec-2017 16:17

[Profile]  [PM] 
Display posts:    

You cannot post new topics in this forum
You cannot reply to topics in this forum
You cannot edit your posts in this forum
You cannot delete your posts in this forum
You cannot vote in polls in this forum
You cannot attach files in this forum
You can download files in this forum
User agreement
For copyright holders
Advertise on this site

Скачайте на халяву через торрент на трекере erzsebet.pl

!ATTENTION!
The site does not give electronic versions of products, and is engaged only in a collecting and cataloguing of the references sent and published at a forum by our readers. If you are the legal owner of any submitted material and do not wish that the reference to it was in our catalogue, contact us and we shall immediately remove her. Files for an exchange on tracker are given by users of a site, and the administration does not bear the responsibility for their maintenance. The request to not fill in the files protected by copyrights, and also files of the illegal maintenance!