Да здравствует музыка / Il cambio della guardia (Джорджо Бьянки / Giorgio Bianchi) [1962, Италия, Франция, комедия, TVRip -> DVD] MVO (Петербург 5 канал)

DL-List and Torrent activity
Size:  2.71 GB   |    Registered:  2 years 9 months   |    Completed:  16 times
Seeders:  3   Leechers:  1   Show peers in full details
 
   
 
 

erzsebet.org ®

Longevity:
2 years 9 months
Posts:
47596

[Quote] 

Да здравствует музыка / Il cambio della guardia
Страна: Италия, Франция
Жанр: комедия
Год выпуска: 1962
Продолжительность: 01:28:18
Перевод: Профессиональный (многоголосый закадровый) Петербург 5 канал
Субтитры: нет
Оригинальная аудиодорожка: нет
Режиссер: Джорджо Бьянки / Giorgio Bianchi
В ролях: Фернандель, Джино Черви, Франко Паренти, Андреа Аурели, Франк Фернандель, Милла Саннонер, Дада Галлотти, Жерар Хертер, Джимми иль Феномено...
Описание: Народная комедия, действие которой происходит в конце Второй мировой войны в итальянской деревне, где появляются союзные войска…
Доп. информация:
DVD с записью эфира 5 канала из собственной коллекции.
Запись на DVD-рекордер в 2007 году.
Эксклюзив!
На просторах Рунета фильм, до сего момента, не замечен!
Дарю!!!

Сэмпл: http://sendfile.su/1364175
Качество видео: TVRip -> DVD
Формат видео: DVD-Video
Видео: MPEG2, 720х576, 4:3, 25,000 кадров/сек, ~4000 Кбит/сек
Аудио: AС3, 48,0 КГц, 128 Кбит/сек, 2 канала (псевдостерео)

MediaInfo

General
Complete name : K:\torrents\Il cambio della guardia\VTS_01_1.VOB
Format : MPEG-PS
File size : 1 024 MiB
Duration : 34 min 24 s
Overall bit rate mode : Variable
Overall bit rate : 4 162 kb/s
Video
ID : 224 (0xE0)
Format : MPEG Video
Format version : Version 2
Format profile : [email protected]
Format settings, BVOP : Yes
Format settings, Matrix : Custom
Format settings, GOP : M=3, N=12
Format settings, picture st : Frame
Duration : 34 min 24 s
Bit rate mode : Variable
Bit rate : 3 951 kb/s
Maximum bit rate : 8 040 kb/s
Width : 720 pixels
Height : 576 pixels
Display aspect ratio : 4:3
Frame rate : 25.000 FPS
Standard : PAL
Color space : YUV
Chroma subsampling : 4:2:0
Bit depth : 8 bits
Scan type : Interlaced
Scan order : Top Field First
Compression mode : Lossy
Bits/(Pixel*Frame) : 0.381
Time code of first frame : 00:00:00:00
Time code source : Group of pictures header
GOP, Open/Closed : Open
GOP, Open/Closed of first f : Closed
Stream size : 972 MiB (95%)
Audio
ID : 189 (0xBD)-128 (0x80)
Format : AC-3
Format/Info : Audio Coding 3
Format settings, Endianness : Big
Muxing mode : DVD-Video
Duration : 34 min 23 s
Bit rate mode : Constant
Bit rate : 128 kb/s
Channel(s) : 2 channels
Channel positions : Front: L R
Sampling rate : 48.0 kHz
Frame rate : 31.250 FPS (1536 SPF)
Bit depth : 16 bits
Compression mode : Lossy
Stream size : 31.5 MiB (3%)
Service kind : Complete Main
Menu

Скриншот c названием фильма

If your ratio falls below 0.3, you will not be able to download Torrents! More about the rating.

[erzsebet.pl].t225.torrent
Torrent: Registered   [ 2017-12-02 16:22 ]

Download .torrent

Download

14 KB

Status: checked
Completed: 16 times
Size: 2.71 GB
terms.php

#1

02-Dec-2017 16:22

[Profile]  [PM] 
Display posts:    

You cannot post new topics in this forum
You cannot reply to topics in this forum
You cannot edit your posts in this forum
You cannot delete your posts in this forum
You cannot vote in polls in this forum
You cannot attach files in this forum
You can download files in this forum
User agreement
For copyright holders
Advertise on this site

Скачайте на халяву через торрент на трекере erzsebet.pl

!ATTENTION!
The site does not give electronic versions of products, and is engaged only in a collecting and cataloguing of the references sent and published at a forum by our readers. If you are the legal owner of any submitted material and do not wish that the reference to it was in our catalogue, contact us and we shall immediately remove her. Files for an exchange on tracker are given by users of a site, and the administration does not bear the responsibility for their maintenance. The request to not fill in the files protected by copyrights, and also files of the illegal maintenance!