Британская разведка / British Intelligence (Терри О. Морс / Terry O. Morse) [1940, США, триллер, мелодрама, военный, DVDRip] Sub Rus + Original Eng

DL-List and Torrent activity
Size:  697 MB   |    Registered:  2 years 9 months   |    Completed:  16 times
Seeders:  5  
 
   
 
 

erzsebet.org ®

Longevity:
2 years 9 months
Posts:
47596

[Quote] 

Британская разведка / British Intelligence
Страна: США
Жанр: триллер, мелодрама, военный
Год выпуска: 1940
Продолжительность: 1:00:22
Перевод: Субтитры (Serveladkin)
Субтитры: русские
Оригинальная аудиодорожка: английский
Режиссер: Терри О. Морс / Terry O. Morse
В ролях: Борис Карлофф, Маргарет Линдси, Брюс Лестер, Леонард Мьюди, Холмс Херберт, Остин Фэйрмэн, Уильям Бэйли, Луиз Брайан, Глен Кэвендер, Дэвид Кавендиш
Описание:
Несмотря на то, что дом члена кабинета министров Артура Беннета кишит шпионами, "кротами" и двойными агентами, никто не знает, под какой маской скрывается известный немецкий шпион Стендлер.

Доп. информация:
Фильмография Бориса Карлоффа
Качество видео: DVDRip
Формат видео: AVI
Видео: 720x544 (1.32:1), 23.976 fps, DivX Codec 5.2.1 build 1338 ~1475 kbps avg, 0.16 bit/pixel
Аудио: 48 kHz, MPEG Layer 3, 2 ch, ~128.00 kbps avg
Формат субтитров: softsub (SRT)
БОЛЬШОЕ СПАСИБО Serveladkin за перевод

MediaInfo

Общее
Полное имя : ...\British Intelligence.avi
Формат : AVI
Формат/Информация : Audio Video Interleave
Размер файла : 697 Мбайт
Продолжительность : 1 ч. 0 м.
Общий поток : 1613 Кбит/сек
Программа кодирования : VirtualDubMod 1.5.10.2 (build 2540/release)
Библиотека кодирования : VirtualDubMod build 2540/release
Видео
Идентификатор : 0
Формат : MPEG-4 Visual
Параметр BVOP формата : Нет
Параметр QPel формата : Нет
Параметр GMC формата : Без точки перехода
Параметр матрицы формата : Default (H.263)
Идентификатор кодека : DX50
Идентификатор кодека/Подсказка : DivX 5
Продолжительность : 1 ч. 0 м.
Битрейт : 1476 Кбит/сек
Номинальный битрейт : 6951 Кбит/сек
Ширина : 720 пикселей
Высота : 544 пикселя
Соотношение сторон : 4:3
Частота кадров : 23,976 (24000/1001) кадра/сек
Цветовое пространство : YUV
Субдискретизация насыщенности : 4:2:0
Битовая глубина : 8 бит
Тип развёртки : Прогрессивная
Метод сжатия : С потерями
Бит/(Пиксели*Кадры) : 0.157
Размер потока : 637 Мбайт (91%)
Библиотека кодирования : DivX 5.2.1 (DrDivX 106) (UTC 2004-09-08)
Аудио
Идентификатор : 1
Формат : MPEG Audio
Версия формата : Version 1
Профиль формата : Layer 3
Режим : Joint stereo
Расширение режима : MS Stereo
Идентификатор кодека : 55
Идентификатор кодека/Подсказка : MP3
Продолжительность : 1 ч. 0 м.
Вид битрейта : Постоянный
Битрейт : 128 Кбит/сек
Каналы : 2 канала
Частота : 48,0 КГц
Метод сжатия : С потерями
Размер потока : 55,3 Мбайт (8%)
Выравнивание : Соединение по промежуткам
Продолжительность промежутка : 42 мс. (1,00 видеокадр)
Время предзагрузки промежутка : 504 мс.

Скриншоты

Фрагмент субтитров

198
00:15:27,140 --> 00:15:30,220
Багаж мисс Хотри еще в Савое.
Проследи, чтобы его доставили сюда.
199
00:15:30,300 --> 00:15:32,000
Сейчас же, мадам.
200
00:15:34,940 --> 00:15:36,920
Там американцы!
201
00:15:51,380 --> 00:15:54,640
Они помогут моей несчастной
стране, да, мистер Беннетт?
202
00:15:54,700 --> 00:15:56,240
Да, Вальдар.
203
00:15:57,060 --> 00:16:00,660
Если бы я мог пойти с ними...
Сражаться вместе с ними!
204
00:16:03,140 --> 00:16:05,320
Пардон, мсье.
205
00:16:12,180 --> 00:16:14,320
Вальдар пережил серьезную трагедию.
206
00:16:14,780 --> 00:16:16,810
Эта рана от штыка на его лице...
207
00:16:17,020 --> 00:16:20,890
Он штатский, но получил
от немцев две пули в ногу.
208
00:16:21,640 --> 00:16:24,460
Его жена и ребенок были убиты
у него на глазах.
209
00:16:24,940 --> 00:16:26,820
Полковник Йейтс услышал
о несчастье Вальдара...
210
00:16:26,920 --> 00:16:29,430
и попросил меня позаботиться о нем,
дать ему работу.
211
00:16:30,460 --> 00:16:32,240
И я ни разу об этом не пожалел.
212
00:16:35,580 --> 00:16:38,010
Отличные парни, что тут скажешь.
213
00:16:38,340 --> 00:16:40,100
Грустно на них смотреть...
214
00:16:41,580 --> 00:16:43,400
Очередное мясо для немецких пушек!
215
00:16:43,540 --> 00:16:45,970
Даст Бог, они станут последними.
216
00:16:46,620 --> 00:16:48,760
Моя дорогая, вы совершенно измотаны.
217
00:16:48,860 --> 00:16:50,980
Давайте я провожу вас в вашу комнату.

If your ratio falls below 0.3, you will not be able to download Torrents! More about the rating.

[erzsebet.pl].t227.torrent
Torrent: Registered   [ 2017-12-02 16:22 ]

Download .torrent

Download

14 KB

Status: checked
Completed: 16 times
Size: 697 MB
terms.php

#1

02-Dec-2017 16:22

[Profile]  [PM] 
Display posts:    

You cannot post new topics in this forum
You cannot reply to topics in this forum
You cannot edit your posts in this forum
You cannot delete your posts in this forum
You cannot vote in polls in this forum
You cannot attach files in this forum
You can download files in this forum
User agreement
For copyright holders
Advertise on this site

Скачайте на халяву через торрент на трекере erzsebet.pl

!ATTENTION!
The site does not give electronic versions of products, and is engaged only in a collecting and cataloguing of the references sent and published at a forum by our readers. If you are the legal owner of any submitted material and do not wish that the reference to it was in our catalogue, contact us and we shall immediately remove her. Files for an exchange on tracker are given by users of a site, and the administration does not bear the responsibility for their maintenance. The request to not fill in the files protected by copyrights, and also files of the illegal maintenance!