Джентльмен Джим / Gentleman Jim (Рауль Уолш / Raoul Walsh) [1942, США, биография, комедия, драма, WEBRip] [Полная версия] MVO (Aleksgreek, smip2010, Линда) + Original Eng

DL-List and Torrent activity
Size:  2.04 GB   |    Registered:  2 years 9 months   |    Completed:  16 times
Seeders:  4  
 
   
 
 

erzsebet.org ®

Longevity:
2 years 9 months
Posts:
47596

[Quote] 

Джентльмен Джим / Gentleman Jim / Полная версия Страна: США
Жанр: Биография, комедия, драма
Год выпуска: 1942
Продолжительность: 01.44.26
Перевод: Любительский (многоголосый закадровый) (Aleksgreek, smip2010, Линда)
Субтитры: нет
Оригинальная аудиодорожка: английский
Режиссер: Рауль Уолш / Raoul Walsh
В ролях: Эррол Флинн, Алексис Смит, Джек Карсон, Алан Хэйл, Джон Лодер, Уильям Фроули, Майнор Уотсон, Уорд Бонд, Мадлен Лебо, Риз Уильямс, Артур Шилдс, Дороти Вон
Описание: На основе событий из жизни Джеймса Дж.Корбетта и его автобиографии "Рев толпы".
Сан-Франциско, 1887 год. Бокс пока еще не то благородное искусство, которым он станет впоследствии; это спорт без правил, популярный на подпольных турнирах на задворках города. Джим Корбетт, скромный банковский служащий, сын кучера-ирландца - завсегдатай таких турниров. При облаве он бессовестно врет и помогает судье Гири уйти от преследователей, чем заслуживает его благодарность. Судья, как и многие жители города, обожает бокс и хочет, чтобы этот спорт стал уделом джентльменов. В банке Корбетт предлагает свои услуги богатой наследнице Виктории Уэйр и относит ее отцу в "Олимпийский клуб" деньги, чтобы тот мог продолжить партию в покер. Корбетт, мечтающий сделать карьеру, заворожен богатым убранством клуба. Виктория помогает ему попасть в гимнастический зал. Он проводит короткий бой со знаменитым тренером Гарри Уотсоном и впечатляет всех своими боксерскими качествами. Ему немедленно вручают членскую карточку, и Виктория, хоть и поражена его нахальством, соглашается стать его "крестной матерью"...

"Кинотеатр"
Доп. информация: Рип найден в сети. Фильм переведён по испанским субтитрам и последующей корректировкой с английской аудиодорожкой. Это полная версия фильма. Получилось так, что посмотрев фильм, о существовании уже переведённой версии даже не предполагал, но взявшись за перевод узнал, что есть такой, хотя и "укороченный". Тогда решил просто перевести отсутствующие фрагменты и выложить со вставками, как в случае с "Принцессой Нила", но на страничке раздачи узнал, что уже имеющийся перевод положен на немецкий дубляж, а у меня в наличии полной версии только английская и испанская аудиодорожки, поэтому перевёл фильм полностью, так и не посмотрев уже имеющийся. Так что не скажу, какие именно моменты отсутствуют в немецкой версии, но так "кромсать" подобные фильмы нельзя. Так что причин для нового полного перевода хватило.
Огромное Спасибо smip2010 и Линде за участие в озвучивании этого старого доброго фильма с отличной режиссёрской и операторской работой и так же прекрасно сыгравшими актёрами.
Буду рад, если моя новая работа кому-то окажется нужной и понравится.

Возможны перебои с раздачей.
Фильм в формате MKV находится здесь: http://erzsebet.org/forum/viewtopic.php?t=5456742
Всем приятного просмотра!

Просьба - данную звуковую дорожку, или русский текст данного фильма, не использовать в коммерческих целях.
В случае, размещения данного релиза на других сайтах, прилагайте, пожалуйста, пояснение о переводе.
Сэмпл: http://sendfile.su/1363765
Качество видео: WEBRip
Формат видео: AVI
Видео: DivX 5, 640Х480, 4:3, 23.976 fps, 2 399 Kbps
Аудио: AC3, 48 KHz, 192 Kbps, 2 channels (mono), русский
Аудио 2: AC3, 48 KHz, 192 Kbps, 2 channels (mono), английский

MediaInfo

Format : AVI
Format/Info : Audio Video Interleave
Format profile : OpenDML
File size : 2.04 GiB
Duration : 1h 44mn
Overall bit rate : 2 802 Kbps
Movie name : 1942-Gentleman.Jim.WEBRip.720p.AC3[DMMD]
Writing application : VirtualDubMod 1.5.10.1 Рус от Stvens Inc.™ www.stvens.amillo.net (build 2439/release)
Writing library : VirtualDubMod build 2439/release
Video
ID : 0
Format : MPEG-4 Visual
Format profile : [email protected]
Format settings, BVOP : No
Format settings, QPel : No
Format settings, GMC : No warppoints
Format settings, Matrix : Default (H.263)
Codec ID : DX50
Codec ID/Hint : DivX 5
Duration : 1h 44mn
Bit rate : 2 399 Kbps
Width : 640 pixels
Height : 480 pixels
Display aspect ratio : 4:3
Frame rate : 23.976 fps
Color space : YUV
Chroma subsampling : 4:2:0
Bit depth : 8 bits
Scan type : Progressive
Compression mode : Lossy
Bits/(Pixel*Frame) : 0.326
Stream size : 1.75 GiB (86%)
Writing library : Lavc52.55.0
Audio #1
ID : 1
Format : AC-3
Format/Info : Audio Coding 3
Mode extension : CM (complete main)
Format settings, Endianness : Big
Codec ID : 2000
Duration : 1h 44mn
Bit rate mode : Constant
Bit rate : 192 Kbps
Channel count : 2 channels
Channel positions : Front: L R
Sampling rate : 48.0 KHz
Bit depth : 16 bits
Compression mode : Lossy
Stream size : 143 MiB (7%)
Alignment : Split accross interleaves
Interleave, duration : 42 ms (1.00 video frame)
Interleave, preload duration : 500 ms
Audio #2
ID : 2
Format : AC-3
Format/Info : Audio Coding 3
Mode extension : CM (complete main)
Format settings, Endianness : Big
Codec ID : 2000
Duration : 1h 44mn
Bit rate mode : Constant
Bit rate : 192 Kbps
Channel count : 2 channels
Channel positions : Front: L R
Sampling rate : 48.0 KHz
Bit depth : 16 bits
Compression mode : Lossy
Stream size : 143 MiB (7%)
Alignment : Split accross interleaves
Interleave, duration : 42 ms (1.00 video frame)
Interleave, preload duration : 500 ms

Скриншот c названием фильма

Скриншоты

Отличный подбор актёров. Реальные фотографии персонажей:

скрытый текст

If your ratio falls below 0.3, you will not be able to download Torrents! More about the rating.

[erzsebet.pl].t230.torrent
Torrent: Registered   [ 2017-12-02 16:22 ]

Download .torrent

Download

11 KB

Status: checked
Completed: 16 times
Size: 2.04 GB
terms.php

#1

02-Dec-2017 16:22

[Profile]  [PM] 
Display posts:    

You cannot post new topics in this forum
You cannot reply to topics in this forum
You cannot edit your posts in this forum
You cannot delete your posts in this forum
You cannot vote in polls in this forum
You cannot attach files in this forum
You can download files in this forum
User agreement
For copyright holders
Advertise on this site

Скачайте на халяву через торрент на трекере erzsebet.pl

!ATTENTION!
The site does not give electronic versions of products, and is engaged only in a collecting and cataloguing of the references sent and published at a forum by our readers. If you are the legal owner of any submitted material and do not wish that the reference to it was in our catalogue, contact us and we shall immediately remove her. Files for an exchange on tracker are given by users of a site, and the administration does not bear the responsibility for their maintenance. The request to not fill in the files protected by copyrights, and also files of the illegal maintenance!