Хороший, плохой, злой / Il buono, il brutto, il cattivo (Серджо Леоне / Sergio Leone) [1966, Италия, вестерн, BDRip] [Extended US Version (MGM)] DVO ("Фортуна-фильм") + MVO

DL-List and Torrent activity
Size:  2.83 GB   |    Registered:  2 years 9 months   |    Completed:  16 times
Seeders:  13   Leechers:  1   Show peers in full details
 
   
 
 

erzsebet.org ®

Longevity:
2 years 9 months
Posts:
47596

[Quote] 

Хороший, плохой, злой / Il buono, il brutto, il cattivo / The Good, the Bad and the Ugly Страна: Италия
Жанр: вестерн
Год выпуска: 1966
Продолжительность: 02:58:42
Перевод: Профессиональный (двухголосый закадровый) студия "Фортуна-фильм" (с лицензионной кассеты "Совенчер"/"Союз-Видео")
Текст читают: Александр Дик, Марина Тарасова
Перевод 2: Профессиональный (многоголосый закадровый) с ДВД
Текст читают: Андрей Градов, Сергей Чекан, Ирина Маликова
Субтитры: нет
Оригинальная аудиодорожка: нет
Режиссер: Серджо Леоне / Sergio Leone
В ролях: Клинт Иствуд, Эли Уоллах, Ли Ван Клиф, Альдо Джуффре, Луиджи Пистилли, Рада Рассимов, Энцо Петито, Клаудио Скаркилли, Джон Барта, Ливио Лоренцон, Антонио Казале, Бенито Стефанелли, Анджело Нови, Антонио Касас, Альдо Самбрелл, Серхио Мендисабаль, Антонио Молино Роха, Лоренцо Робледо, Марио Брега, Америго Кастригелла, Франко Точчи, Аль Мюлок, Сатурно Серра, Романо Пуппо, Антонио Руис, Энрике Сантьяго
Описание: 1862 год, территория Нью-Мексико времен Гражданской войны. Отъявленный головорез Сентенца заявляется на ферму бывшего солдата и под пытками выведывает у него информацию о спрятанном золоте Конфедерации. Бедолага фермер рассказывает своему палачу, что о местонахождении золота знает тот, кто называет себя Биллом Карсоном. Сентенца убивает и фермера, и своего нанимателя и отправляется на поиски клада. Тем временем ловкий стрелок Блондин отбивает у охотников за головами бандита Туко. Блондин сам сдает его властям, получает за это деньги, затем освобождает Туко и делит с ним гонорар. Туко и Блондин объединяются и проворачивают подобные аферы еще не раз, а потом ссорятся из-за несогласия по финансовому вопросу. Сначала Блондин бросит напарника в пустыне, а затем уже Туко захочет отомстить и вдоволь поизмывается над стрелком. Но волею судьбы они станут обладателями важной информации и сокровищах конфедератов. Делиться ею друг с другом парни не спешат, а потому объединяются для поисков золота. По пути они неизбежно сталкиваются с Сентенцей, который преследует ту же цель. Какие неожиданные союзы возникнут внутри этой троицы? Кто из них доберется до желанного клада? И кому при этом удастся выжить?...
Доп. информация: Видеоряд от HELLYWOOD. За синхронизацию переводов и озвучку студии "Фортуна-фильм" благодарю cooman1. Имеются вставки двухголоски Лицензии в озвучке "Фортуна-фильм" и вставки Somewax в многоголосой озвучке с ДВД от Grejfer (спасибо ему).
Сэмпл: http://multi-up.com/1169133
Качество видео: BDRip
Формат видео: AVI
Видео: XviD, 720x304 (2.35:1), 23.976 fps, 1972 kbps avg
Аудио: Russian AC3 Dolby Digital, 48 kHz, 2/0 (L,R) ch, 192.00 kbps avg
Аудио 2: Russian AC3 Dolby Digital, 48 kHz, 2/0 (L,R) ch, 192.00 kbps avg

MediaInfo

General
Complete name : E:\Good the Bad and the Ugly\Good.the.Bad.and.the.Ugly.1966.BDRip.DVO.MVO.avi
Format : AVI
Format/Info : Audio Video Interleave
File size : 2.83 GiB
Duration : 2 h 58 min
Overall bit rate : 2 269 kb/s
Writing application : VirtualDubModRus 1.5.10.2 (build 2542/release)
Writing library : VirtualDubMod build 2542/release
Video
ID : 0
Format : MPEG-4 Visual
Format profile : Advanced [email protected]
Format settings, BVOP : 1
Format settings, QPel : No
Format settings, GMC : No warppoints
Format settings, Matrix : Default (MPEG)
Codec ID : XVID
Codec ID/Hint : XviD
Duration : 2 h 58 min
Bit rate : 1 871 kb/s
Width : 720 pixels
Height : 304 pixels
Display aspect ratio : 2.35:1
Frame rate : 23.976 (24000/1001) FPS
Color space : YUV
Chroma subsampling : 4:2:0
Bit depth : 8 bits
Scan type : Progressive
Compression mode : Lossy
Bits/(Pixel*Frame) : 0.356
Stream size : 2.33 GiB (82%)
Writing library : XviD 1.2.1 (UTC 2008-12-04)
Audio #1
ID : 1
Format : AC-3
Format/Info : Audio Coding 3
Format settings, Endianness : Big
Codec ID : 2000
Duration : 2 h 58 min
Bit rate mode : Constant
Bit rate : 192 kb/s
Channel(s) : 2 channels
Channel positions : Front: L R
Sampling rate : 48.0 kHz
Frame rate : 31.250 FPS (1536 SPF)
Bit depth : 16 bits
Compression mode : Lossy
Stream size : 245 MiB (8%)
Alignment : Split accross interleaves
Interleave, duration : 42 ms (1.00 video frame)
Interleave, preload duratio : 500 ms
Service kind : Complete Main
Audio #2
ID : 2
Format : AC-3
Format/Info : Audio Coding 3
Format settings, Endianness : Big
Codec ID : 2000
Duration : 2 h 58 min
Bit rate mode : Constant
Bit rate : 192 kb/s
Channel(s) : 2 channels
Channel positions : Front: L R
Sampling rate : 48.0 kHz
Frame rate : 31.250 FPS (1536 SPF)
Bit depth : 16 bits
Compression mode : Lossy
Stream size : 245 MiB (8%)
Alignment : Split accross interleaves
Interleave, duration : 42 ms (1.00 video frame)
Interleave, preload duratio : 500 ms
Service kind : Complete Main

Скриншоты

If your ratio falls below 0.3, you will not be able to download Torrents! More about the rating.

[erzsebet.pl].t233.torrent
Torrent: Registered   [ 2017-12-02 16:22 ]

Download .torrent

Download

15 KB

Status: checked
Completed: 16 times
Size: 2.83 GB
terms.php

#1

02-Dec-2017 16:22

[Profile]  [PM] 
Display posts:    

You cannot post new topics in this forum
You cannot reply to topics in this forum
You cannot edit your posts in this forum
You cannot delete your posts in this forum
You cannot vote in polls in this forum
You cannot attach files in this forum
You can download files in this forum
User agreement
For copyright holders
Advertise on this site

Скачайте на халяву через торрент на трекере erzsebet.pl

!ATTENTION!
The site does not give electronic versions of products, and is engaged only in a collecting and cataloguing of the references sent and published at a forum by our readers. If you are the legal owner of any submitted material and do not wish that the reference to it was in our catalogue, contact us and we shall immediately remove her. Files for an exchange on tracker are given by users of a site, and the administration does not bear the responsibility for their maintenance. The request to not fill in the files protected by copyrights, and also files of the illegal maintenance!