Клетка для соловьёв / La Cage aux Rossignols / A Cage of Nightingales (Жан Древиль / Jean Dreville) [1945, Франция, Драма, DVDRip] [Ремастер версия] VO + Sub Rus + Original Fre

DL-List and Torrent activity
Size:  1.37 GB   |    Registered:  2 years 9 months   |    Completed:  16 times
Seeders:  2  
 
   
 
 

erzsebet.org ®

Longevity:
2 years 9 months
Posts:
47596

[Quote] 

Клетка для соловьёв / La Cage aux Rossignols / A Cage of Nightingales / Ремастер версия
Страна: Франция
Жанр: Драма
Год выпуска: 1945
Продолжительность: 01:28:24
Перевод: Одноголосый закадровый
Субтитры: Русские
Оригинальная аудиодорожка: Французский
Режиссер: Жан Древиль / Jean Dreville
В ролях: Ноэль-Ноэль / Noel-Noel, Рене Женен / Rene Genin, Мишлен Франсе / Micheline Francey, Рене Бланкар / Rene Blancard, Жорж Биско / Georges Biscot, Роже Кребс / Roger Krebs
Описание: Преподаватель Клеман Матье публикует в ежедневной газете рассказ о своей работе в интернате для неблагополучных детей. Благодоря изобретательности и пониманию, а не строгости и жестокости, он быстро снискал расположение подростков и организовал в учреждении хор.
Доп. информация: Рип сделан с оригинального Ремастер DVD 9 за рус дорожку Спасибо viktor_2838
DVD Можно взять здесь - http://erzsebet.org/forum/viewtopic.php?t=5457158
Сэмпл: http://multi-up.com/1169112
Качество видео: DVDRip
Формат видео: AVI
Видео: 704х528, 25.000 fps, 1 791 Kbps
Аудио 1: Русский (AC3 192 kbps 2 ch 48.0 KHz)
Аудио 2: Французский (AC3 224 kbps 2 ch 48.0 KHz)
Формат субтитров: softsub (SRT)

MediaInfo

General
Complete name : C:\Documents and Settings\Admin\Мои документы\Downloads\La Cage aux Rossignols 1945\La Cage aux Rossignols 1945.avi
Format : AVI
Format/Info : Audio Video Interleave
File size : 1.37 GiB
Duration : 1h 28mn
Overall bit rate : 2 216 Kbps
Writing application : VirtualDubMod 1.5.4.1 (build 2178/release)
Writing library : VirtualDubMod build 2178/release
Video
ID : 0
Format : MPEG-4 Visual
Format profile : Advanced [email protected]
Format settings, BVOP : 1
Format settings, QPel : No
Format settings, GMC : No warppoints
Format settings, Matrix : Custom
Codec ID : XVID
Codec ID/Hint : XviD
Duration : 1h 28mn
Bit rate : 1 791 Kbps
Width : 704 pixels
Height : 528 pixels
Display aspect ratio : 4:3
Frame rate : 25.000 fps
Color space : YUV
Chroma subsampling : 4:2:0
Bit depth : 8 bits
Scan type : Progressive
Compression mode : Lossy
Bits/(Pixel*Frame) : 0.193
Stream size : 1.11 GiB (81%)
Writing library : XviD 1.2.1 (UTC 2008-12-04)
Audio #1
ID : 1
Format : AC-3
Format/Info : Audio Coding 3
Mode extension : CM (complete main)
Format settings, Endianness : Big
Codec ID : 2000
Duration : 1h 28mn
Bit rate mode : Constant
Bit rate : 192 Kbps
Channel(s) : 2 channels
Channel positions : Front: L R
Sampling rate : 48.0 KHz
Bit depth : 16 bits
Compression mode : Lossy
Stream size : 121 MiB (9%)
Alignment : Split accross interleaves
Interleave, duration : 96 ms (2.40 video frames)
Interleave, preload duration : 96 ms
Language : Russian
Audio #2
ID : 2
Format : AC-3
Format/Info : Audio Coding 3
Mode extension : CM (complete main)
Format settings, Endianness : Big
Codec ID : 2000
Duration : 1h 28mn
Bit rate mode : Constant
Bit rate : 224 Kbps
Channel(s) : 2 channels
Channel positions : Front: L R
Sampling rate : 48.0 KHz
Bit depth : 16 bits
Compression mode : Lossy
Stream size : 142 MiB (10%)
Alignment : Split accross interleaves
Interleave, duration : 96 ms (2.40 video frames)
Interleave, preload duration : 96 ms
Language : Francais

Скриншот c названием фильма

Скриншоты

Пример субтитров

00:00:57,127 --> 00:01:02,302
Ноэль-Ноэль в роли
Клемана Матье в фильме
2
00:01:03,198 --> 00:01:04,148
КЛЕТКА ДЛЯ СОЛОВЬЕВ
3
00:01:08,582 --> 00:01:11,929
В ролях:
Мишлин - Мишлин Франсе
4
00:01:12,138 --> 00:01:15,490
Максанс - Рене Женен
5
00:01:15,741 --> 00:01:19,017
директор Рашен - Рене Бланкар
6
00:01:19,017 --> 00:01:23,826
в главных детских ролях Лакерек
- Мишель Франсуа Лужье - Роже Кребс
7
00:01:34,707 --> 00:01:39,037
Раймонд - Жорж Биско
8
00:01:39,288 --> 00:01:46,304
Роли детей исполняют и поют песни:
Парижский хор мальчиков де ля Круа де Буа
9
00:01:48,211 --> 00:01:51,366
сценарий
Ноэль-Ноэль, Рене Велер
10
00:01:57,543 --> 00:02:01,163
композитор
Рене Клёрек
11
00:02:01,464 --> 00:02:04,075
оператор
Поль Коттере
12
00:02:19,990 --> 00:02:20,940
режиссер
Жан Древиль
13
00:02:29,598 --> 00:02:33,678
редакция газеты
La Depeche (Депеша)
14
00:02:41,352 --> 00:02:43,289
- Где Дюваль?
- В своем кабинете.
15
00:02:44,000 --> 00:02:47,000
Я жду фотоклише из сервиса!
16
00:02:49,000 --> 00:02:52,000
Бьют часы.
17
00:02:52,000 --> 00:02:55,000
Алло? Это фотосервис.
18
00:02:55,000 --> 00:02:58,000
- Месье ла Праде пришел?
- Так отправлять?
19
00:02:58,000 --> 00:03:00,000
-Ты шутишь, не уйдут же они сами!
- Ладно, знаю.
20
00:03:00,000 --> 00:03:02,000
- Копии готовы?
- Пока нет!

If your ratio falls below 0.3, you will not be able to download Torrents! More about the rating.

[erzsebet.pl].t234.torrent
Torrent: Registered   [ 2017-12-02 16:22 ]

Download .torrent

Download

14 KB

Status: checked
Completed: 16 times
Size: 1.37 GB
terms.php

#1

02-Dec-2017 16:22

[Profile]  [PM] 
Display posts:    

You cannot post new topics in this forum
You cannot reply to topics in this forum
You cannot edit your posts in this forum
You cannot delete your posts in this forum
You cannot vote in polls in this forum
You cannot attach files in this forum
You can download files in this forum
User agreement
For copyright holders
Advertise on this site

Скачайте на халяву через торрент на трекере erzsebet.pl

!ATTENTION!
The site does not give electronic versions of products, and is engaged only in a collecting and cataloguing of the references sent and published at a forum by our readers. If you are the legal owner of any submitted material and do not wish that the reference to it was in our catalogue, contact us and we shall immediately remove her. Files for an exchange on tracker are given by users of a site, and the administration does not bear the responsibility for their maintenance. The request to not fill in the files protected by copyrights, and also files of the illegal maintenance!