Вздымающийся ад / Ад в поднебесье / The Towering Inferno (Джон Гиллермин / John Guillermin) [1974, США, драма, катастрофа, триллер, BDRip] MVO (НТВ+ по заказу НТВ)

DL-List and Torrent activity
Size:  2.18 GB   |    Registered:  2 years 9 months   |    Completed:  16 times
Seeders:  3  
 
   
 
 

erzsebet.org ®

Longevity:
2 years 9 months
Posts:
47596

[Quote] 

Вздымающийся ад / Ад в поднебесье / The Towering Inferno
Страна: США
Жанр: драма, катастрофа, триллер
Год выпуска: 1974
Продолжительность: 02:44:52
Перевод: Профессиональный (многоголосый закадровый) НТВ+ по заказу НТВ
Субтитры: нет
Оригинальная аудиодорожка: нет
Режиссер: Джон Гиллермин / John Guillermin
В ролях: Стив МакКуин (Steve McQueen / Chief O’Hallorhan), Пол Ньюмен (Paul Newman / Doug Roberts), Уильям Холден (William Holden / Jim Duncan), Фэй Данауэй (Faye Dunaway / Susan), Фред Астер (Fred Astaire / Harlee Claiborne), Сьюзан Блейкли (Susan Blakely / Patty), Ричард Чемберлен (Richard Chamberlain / Simmons), Дженнифер Джонс (Jennifer Jones / Lisolette), О. Дж. Симпсон (O.J. Simpson / Jernigan), Роберт Вон (Robert Vaughn / Senator Parker), Роберт Вагнер (Robert Wagner / Bigelow), Сьюзэн Флэннери (Susan Flannery / Lorrie), Шила Аллен (Sheila Allen (в титрах: Sheila Mathews) / Paula Ramsay), Норманн Бёртон (Norman Burton (в титрах: Normann Burton) / Giddings), Джек Коллинз (Jack Collins / Mayor Ramsay), Дон Гордон (Don Gordon / Kappy), Фелтон Перри (Felton Perry / Scott), Грегори Сьерра (Gregory Sierra / Carlos), Эрни Ф. Орсатти (Ernie F. Orsatti (в титрах: Ernie Orsatti) / Mark Powers), Норман Грабовски (Norman Grabowski / Flaker) и другие.
Описание: Влиятельные бизнесмены, представители власти, звёзды кино и телевидения съезжаются на банкет, посвящённый открытию недавно построенного в Сан-Франциско небоскрёба. Банкет проходит на одном из самых верхних этажей «Стеклянной башни». В самый разгар веселья в здании начинается пожар. Постепенно огонь поднимается всё выше и выше, отрезая людям дороги к спасению. В огненную ловушку угодили триста человек. Критическая ситуация, в которой оказались эти несчастные, раскрывает нюансы их личных отношений и скрытые черты характера…
Доп. информация: За видео спасибо teco. За аудиодорожку спасибо Hel_ka67.
На 00:23:08 – 00:24:21 и 00:46:44 – 00:47:06 вставки из озвучки т/к «Россия»
Текст читают: Наталья Казначеева, Ольга Кузнецова, Владимир Вихров, Рудольф Панков, Дмитрий Полонский и Александр Рахленко.

Сэмпл: Здесь
Качество видео: BDRip (Видео отсюда)
Формат видео: AVI
Видео: XviD, 720x304 (2,35:1) / 23,976 fps / 1690 kbps / 0,322 bit/pixel
Аудио: Russian: AC3 2/0 (L, R) ch, 192 kbps, 48 kHz, 16 bit / многоголосый (НТВ+ по заказу НТВ)

MediaInfo

Общее
Полное имя : F:\Папка для скачиваний в erzsebet.org\The.Towering.Inferno_1974.BDRip_MVO(НТВ).avi
Формат : AVI
Формат/Информация : Audio Video Interleave
Профиль формата : OpenDML
Размер файла : 2,18 Гбайт
Продолжительность : 2 ч. 44 м.
Общий поток : 1894 Кбит/сек
Программа кодирования : VirtualDubMod 1.5.10.2 (build 2540/release)
Библиотека кодирования : VirtualDubMod build 2540/release
Видео
Идентификатор : 0
Формат : MPEG-4 Visual
Профиль формата : Advanced [email protected]
Параметр BVOP формата : 2
Параметр QPel формата : Нет
Параметр GMC формата : Без точки перехода
Параметр матрицы формата : Выборочная
Идентификатор кодека : XVID
Идентификатор кодека/Подсказка : XviD
Продолжительность : 2 ч. 44 м.
Битрейт : 1690 Кбит/сек
Ширина : 720 пикселей
Высота : 304 пикселя
Соотношение сторон : 2,35:1
Частота кадров : 23,976 кадра/сек
Цветовое пространство : YUV
Субдискретизация насыщенности : 4:2:0
Битовая глубина : 8 бит
Тип развёртки : Прогрессивная
Метод сжатия : С потерями
Бит/(Пиксели*Кадры) : 0.322
Размер потока : 1,95 Гбайт (89%)
Библиотека кодирования : XviD 63
Аудио
Идентификатор : 1
Формат : AC-3
Формат/Информация : Audio Coding 3
Расширение режима : CM (complete main)
Параметр Endianness формата : Big
Идентификатор кодека : 2000
Продолжительность : 2 ч. 44 м.
Вид битрейта : Постоянный
Битрейт : 192 Кбит/сек
Каналы : 2 канала
Расположение каналов : Front: L R
Частота : 48,0 КГц
Битовая глубина : 16 бит
Метод сжатия : С потерями
Размер потока : 226 Мбайт (10%)
Выравнивание : Разделение по промежуткам
Продолжительность промежутка : 42 мс. (1,00 видеокадр)
Время предзагрузки промежутка : 500 мс.
Заголовок : MVO (НТВ)

Скриншот c названием фильма

Скриншоты


If your ratio falls below 0.3, you will not be able to download Torrents! More about the rating.

[erzsebet.pl].t235.torrent
Torrent: Registered   [ 2017-12-02 16:22 ]

Download .torrent

Download

11 KB

Status: checked
Completed: 16 times
Size: 2.18 GB
terms.php

#1

02-Dec-2017 16:22

[Profile]  [PM] 
Display posts:    

You cannot post new topics in this forum
You cannot reply to topics in this forum
You cannot edit your posts in this forum
You cannot delete your posts in this forum
You cannot vote in polls in this forum
You cannot attach files in this forum
You can download files in this forum
User agreement
For copyright holders
Advertise on this site

Скачайте на халяву через торрент на трекере erzsebet.pl

!ATTENTION!
The site does not give electronic versions of products, and is engaged only in a collecting and cataloguing of the references sent and published at a forum by our readers. If you are the legal owner of any submitted material and do not wish that the reference to it was in our catalogue, contact us and we shall immediately remove her. Files for an exchange on tracker are given by users of a site, and the administration does not bear the responsibility for their maintenance. The request to not fill in the files protected by copyrights, and also files of the illegal maintenance!