Рио Кончос / Rio Conchos (Гордон Дуглас / Gordon Douglas) [1964, США, вестерн, DVDRip]

DL-List and Torrent activity
Size:  1.37 GB   |    Registered:  2 years 9 months   |    Completed:  16 times
Seeders:  4  
 
   
 
 

erzsebet.org ®

Longevity:
2 years 9 months
Posts:
47596

[Quote] 

Рио Кончос / Rio Conchos
Год выпуска: 1964
Страна: USA, Twentieth Century-Fox Film Corporation
Жанр: вестерн
Продолжительность: 01:42:36
Перевод: Авторский - Сергей Кузнецов + английская дорожка + испанские субтитры (idx + sub)
Русские субтитры: нет
Режиссер: Гордон Дуглас / Gordon Douglas
В ролях: Ричард Бун /Richard Boone/, Стюарт Уитман /Stuart Whitman/, Энтони Франчоза /Anthony Franciosa/, Джим Браун /Jim Brown/, Wende Wagner /Wende Wagner/, Уорнер Андерсон /Warner Anderson/, Родольфо Акоста /Rodolfo Acosta/, Бэрри Келли /Barry Kelley/, Вито Скотти /Vito Scotti/, Хаус Питерс мл. /House Peters Jr./
Описание:
Плохой полковник хочет загнать новые винтовки злым апачам, но хорошие и храбрые американцы-патриоты им все портят....
Неплохо снятый динамичный фильм со стандартным сюжетом. AlexNT-Доп. информация: IMDB 6.4/10 (382 votes)
Релиз -Качество: DVDRip
Формат: AVI
Видео кодек: DivX
Аудио кодек: AC3 + MP3
Видео: DivX 5 720x400 25fps
Аудио 1: Dolby AC3 48000Hz stereo 192kbps [Русский]
Аудио 2: MP3 48000Hz stereo 128kbps [English]

Скриншоты

MediaInfo

General
Format : AVI
Format/Info : Audio Video Interleave
File size : 1.37 GiB
Duration : 1 h 42 min
Overall bit rate : 1 908 kb/s
Movie name : Rio Conchos
Director : Gordon Douglas
Genre : Western
Writing application : VirtualDubMod 1.5.10.2 (build 2540/release)
Original source form/Name : Movie
Copyright : Twentieth Century-Fox Film Corporation
Comment : DVDRip by gera
Video
ID : 0
Format : MPEG-4 Visual
Format settings, BVOP : 3
Format settings, QPel : No
Format settings, GMC : No warppoints
Format settings, Matrix : Default (MPEG)
Muxing mode : Packed bitstream
Codec ID : DX50
Codec ID/Hint : DivX 5
Duration : 1 h 42 min
Bit rate : 1 580 kb/s
Nominal bit rate : 9 027 kb/s
Width : 720 pixels
Height : 400 pixels
Display aspect ratio : 16:9
Frame rate : 25.000 FPS
Color space : YUV
Chroma subsampling : 4:2:0
Bit depth : 8 bits
Scan type : Progressive
Compression mode : Lossy
Bits/(Pixel*Frame) : 0.219
Stream size : 1.13 GiB (83%)
Writing library : DivX 6.8.5 (UTC 2009-08-20)
Audio #1
ID : 1
Format : AC-3
Format/Info : Audio Coding 3
Mode extension : CM (complete main)
Format settings, Endianness : Big
Codec ID : 2000
Duration : 1 h 42 min
Bit rate mode : Constant
Bit rate : 192 kb/s
Channel(s) : 2 channels
Channel positions : Front: L R
Sampling rate : 48.0 kHz
Frame rate : 31.250 FPS (1536 spf)
Bit depth : 16 bits
Compression mode : Lossy
Stream size : 141 MiB (10%)
Alignment : Split accross interleaves
Interleave, duration : 64 ms (1.60 video frames)
Interleave, preload duration : 64 ms
Audio #2
ID : 2
Format : MPEG Audio
Format version : Version 1
Format profile : Layer 3
Mode : Joint stereo
Mode extension : MS Stereo
Codec ID : 55
Codec ID/Hint : MP3
Duration : 1 h 42 min
Bit rate mode : Constant
Bit rate : 128 kb/s
Channel(s) : 2 channels
Sampling rate : 48.0 kHz
Compression mode : Lossy
Stream size : 93.9 MiB (7%)
Alignment : Aligned on interleaves
Interleave, duration : 1000 ms (25.00 video frames)
Interleave, preload duration : 1008 ms

If your ratio falls below 0.3, you will not be able to download Torrents! More about the rating.

[erzsebet.pl].t238.torrent
Torrent: Registered   [ 2017-12-02 16:22 ]

Download .torrent

Download

14 KB

Status: checked
Completed: 16 times
Size: 1.37 GB
terms.php

#1

02-Dec-2017 16:22

[Profile]  [PM] 
Display posts:    

You cannot post new topics in this forum
You cannot reply to topics in this forum
You cannot edit your posts in this forum
You cannot delete your posts in this forum
You cannot vote in polls in this forum
You cannot attach files in this forum
You can download files in this forum
User agreement
For copyright holders
Advertise on this site

Скачайте на халяву через торрент на трекере erzsebet.pl

!ATTENTION!
The site does not give electronic versions of products, and is engaged only in a collecting and cataloguing of the references sent and published at a forum by our readers. If you are the legal owner of any submitted material and do not wish that the reference to it was in our catalogue, contact us and we shall immediately remove her. Files for an exchange on tracker are given by users of a site, and the administration does not bear the responsibility for their maintenance. The request to not fill in the files protected by copyrights, and also files of the illegal maintenance!