Крутые водилы, Прочь с дороги / High-Ballin', Trucker, Death Toll (Питер Картер / Peter Carter) [1978, Канада, США, экшн, драма, боевик, SATRip]

DL-List and Torrent activity
Size:  1.3 GB   |    Registered:  2 years 9 months   |    Completed:  16 times
Seeders:  5  
 
   
 
 

erzsebet.org ®

Longevity:
2 years 9 months
Posts:
47596

[Quote] 

Крутые водилы, Прочь с дороги / High-Ballin', Trucker, Death Toll Год выпуска: 1978
Страна: Канада, США
Жанр: экшн, драма, боевик
Продолжительность: 1:35:05
Перевод: Профессиональный (двухголосый)
Русские субтитры: нет
Режиссер: Питер Картер / Peter Carter
В ролях:
Питер Фонда / Peter Fonda ... Rane
Джерри Рид / Jerry Reed ... Duke
Хелен Шейвер / Helen Shaver ... Pickup
Крис Уиггинс / Chris Wiggins ... King Carroll
Крис Лангевин / Chris Langevin ... Tanker (as Christopher Langevin)
Дэвид Ферри / David Ferry ... Harvey
Харви Аткин / Harvey Atkin ... Buzz
Лесли Карлсон / Leslie Carlson ... Bud (as Les Carlson)
Венди Тэчер / Wendy Thatcher ... Hijacker
Описание: Далнобойщики, водители грузовиков вынуждены противостоять бандитам, которых наняли «нехорошие дяди», чтобы помешать им вести свой бизнес. И Питер Фонда, как всегда, на байке.
Очень хорошее музыкальное оформление в стиле кантри-блюз.
Доп. информация:
рейтинг 4.8 / 10
SATrip (MGM), remastering video and sound by Studio RAK
Качество: SATRip
Формат: AVI
Видео кодек: XviD
Аудио кодек: MP3
Видео: 688x512 (4:3), 25 fps, XviD MPEG-4 ~1818 kbps avg, 0.21 bit/pixel
Аудио: 48 kHz, MPEG Layer 3, 2 ch, 128.00 kbps avg

Скриншоты

MediaInfo

General
Format : AVI
Format/Info : Audio Video Interleave
File size : 1.30 GiB
Duration : 1 h 35 min
Overall bit rate : 1 956 kb/s
Movie name : High-Ballin', Trucker, Death Toll (1978)
Director : directed by Peter Carter
Writing application : VirtualDubMod 1.5.10.2 (build 2542/release)
Writing library : VirtualDubMod build 2542/release
Copyright : SATrip, remastering video and sound by Studio RAK
Video
ID : 0
Format : MPEG-4 Visual
Format profile : Advanced [email protected]
Format settings, BVOP : 2
Format settings, QPel : No
Format settings, GMC : No warppoints
Format settings, Matrix : Default (H.263)
Muxing mode : Packed bitstream
Codec ID : XVID
Codec ID/Hint : XviD
Duration : 1 h 35 min
Bit rate : 1 819 kb/s
Width : 688 pixels
Height : 512 pixels
Display aspect ratio : 4:3
Frame rate : 25.000 FPS
Color space : YUV
Chroma subsampling : 4:2:0
Bit depth : 8 bits
Scan type : Progressive
Compression mode : Lossy
Bits/(Pixel*Frame) : 0.206
Stream size : 1.21 GiB (93%)
Writing library : XviD 1.2.0.dev47 (UTC 2006-11-01)
Audio
ID : 1
Format : MPEG Audio
Format version : Version 1
Format profile : Layer 3
Codec ID : 55
Codec ID/Hint : MP3
Duration : 1 h 35 min
Bit rate mode : Constant
Bit rate : 128 kb/s
Channel(s) : 2 channels
Sampling rate : 48.0 kHz
Compression mode : Lossy
Stream size : 87.1 MiB (7%)
Alignment : Aligned on interleaves
Interleave, duration : 40 ms (1.00 video frame)
Interleave, preload duration : 504 ms
Writing library : LAME3.98r
Encoding settings : -m s -V 4 -q 9 -lowpass 17 -b 128

Постер

Релиз: Studio RAK

If your ratio falls below 0.3, you will not be able to download Torrents! More about the rating.

[erzsebet.pl].t239.torrent
Torrent: Registered   [ 2017-12-02 16:22 ]

Download .torrent

Download

13 KB

Status: checked
Completed: 16 times
Size: 1.3 GB
terms.php

#1

02-Dec-2017 16:22

[Profile]  [PM] 
Display posts:    

You cannot post new topics in this forum
You cannot reply to topics in this forum
You cannot edit your posts in this forum
You cannot delete your posts in this forum
You cannot vote in polls in this forum
You cannot attach files in this forum
You can download files in this forum
User agreement
For copyright holders
Advertise on this site

Скачайте на халяву через торрент на трекере erzsebet.pl

!ATTENTION!
The site does not give electronic versions of products, and is engaged only in a collecting and cataloguing of the references sent and published at a forum by our readers. If you are the legal owner of any submitted material and do not wish that the reference to it was in our catalogue, contact us and we shall immediately remove her. Files for an exchange on tracker are given by users of a site, and the administration does not bear the responsibility for their maintenance. The request to not fill in the files protected by copyrights, and also files of the illegal maintenance!