Норма Рэй / Norma Rae (Мартин Ритт / Martin Ritt) [1979, США, драма, DVDRip] MVO + original

DL-List and Torrent activity
Size:  1.47 GB   |    Registered:  2 years 9 months   |    Completed:  16 times
Seeders:  2   Leechers:  1   Show peers in full details
 
   
 
 

erzsebet.org ®

Longevity:
2 years 9 months
Posts:
47596

[Quote] 

Норма Рэй / Norma Rae Год выпуска: 1979
Страна: США
Жанр: драма
Продолжительность: 1:49:56
Перевод: Профессиональный (многоголосый, закадровый)
Русские субтитры: нет
Режиссер: Мартин Ритт / Martin Ritt
В ролях: Сэлли Филд / Sally Field ... Norma Rae
Бо Бриджес / Beau Bridges ... Sonny
Рон Лейбман / Ron Leibman ... Reuben
Пэт Хингл / Pat Hingle ... Vernon
Барбара Баксли / Barbara Baxley ... Leona
Гаил Стриклэнд / Gail Strickland ... Bonnie Mae
Морган Паулл / Morgan Paull ... Wayne Billings
Описание: Норма Рэй работает на текстильной фабрике с утра и до поздней ночи. Условия труда – невыносимые, а зарплата – жалкие гроши.
Но так живут все: ее родители, друзья, соседи. И ничего не меняется долгие годы. Но знакомство с профсоюзным деятелем Рубеном Варшавски круто меняет жизнь Нормы. Вместе с подругами она начинает отчаянную борьбу за свои права, против произвола владельцев фабрики.
Доп. информация:
- Рейтинг 7.2
Оригинальный англо-испанский DVDrip by merxe, за что ему ОГРОМНЫЙ СПАСИБ!
на первом месте русский, микс перевода Питер ТВ5 с оригинальной английской дорожкой
английскую дорожку причесал и поставил на второе место
испанскую АС3 дорожку аккуратно положил в корзинку
Synchronizing and remastering sound by Studio RAK
Качество: DVDRip
Формат: AVI
Видео кодек: XviD
Аудио кодек: MP3
Видео: 704x304 (2.32:1), 25 fps, XviD build 46 ~1638 kbps avg, 0.31 bit/pixel
Аудио 1: 48 kHz, MPEG Layer 3, 2 ch, 128.00 kbps avg - русский, микс перевода Питер ТВ5 с английской дорожкой
Аудио 2: 48 kHz, MPEG Layer 3, 2 ch, 128.00 kbps avg - английский, оригинальный, ремастеринг

Скриншоты

MediaInfo

General
Format : AVI
Format/Info : Audio Video Interleave
File size : 1.47 GiB
Duration : 1 h 49 min
Overall bit rate : 1 910 kb/s
Movie name : Norma Rae (1979) Норма Рэй
Director : directed by Martin Ritt
Writing application : VirtualDubMod 1.5.10.2 (build 2542/release)
Writing library : VirtualDubMod build 2542/release
Copyright : DVDrip by MERXE, rus sound by Studio RAK
Video
ID : 0
Format : MPEG-4 Visual
Format profile : Advanced [email protected]
Format settings, BVOP : 2
Format settings, QPel : No
Format settings, GMC : No warppoints
Format settings, Matrix : Default (MPEG)
Codec ID : XVID
Codec ID/Hint : XviD
Duration : 1 h 49 min
Bit rate : 1 640 kb/s
Width : 704 pixels
Height : 304 pixels
Display aspect ratio : 2.35:1
Frame rate : 25.000 FPS
Color space : YUV
Chroma subsampling : 4:2:0
Bit depth : 8 bits
Scan type : Progressive
Compression mode : Lossy
Bits/(Pixel*Frame) : 0.306
Stream size : 1.26 GiB (86%)
Writing library : XviD 1.1.2 (UTC 2006-11-01)
Audio #1
ID : 1
Format : MPEG Audio
Format version : Version 1
Format profile : Layer 3
Codec ID : 55
Codec ID/Hint : MP3
Duration : 1 h 49 min
Bit rate mode : Constant
Bit rate : 128 kb/s
Channel(s) : 2 channels
Sampling rate : 48.0 kHz
Compression mode : Lossy
Stream size : 101 MiB (7%)
Alignment : Aligned on interleaves
Interleave, duration : 40 ms (1.00 video frame)
Interleave, preload duration : 504 ms
Writing library : LAME3.98r
Encoding settings : -m s -V 4 -q 9 -lowpass 17 -b 128
Audio #2
ID : 2
Format : MPEG Audio
Format version : Version 1
Format profile : Layer 3
Codec ID : 55
Codec ID/Hint : MP3
Duration : 1 h 49 min
Bit rate mode : Constant
Bit rate : 128 kb/s
Channel(s) : 2 channels
Sampling rate : 48.0 kHz
Compression mode : Lossy
Stream size : 101 MiB (7%)
Alignment : Aligned on interleaves
Interleave, duration : 40 ms (1.00 video frame)
Interleave, preload duration : 504 ms
Writing library : LAME3.98r
Encoding settings : -m s -V 4 -q 9 -lowpass 17 -b 128

Награды и премии

1979 — Каннский кинофестиваль, Победитель в категориях:
Лучшая актриса — Сэлли Филд
Большой приз высшей технической комиссии — Сэлли Филд
1980 — Оскар, Победитель в категориях:
Лучшая актриса — Сэлли Филд
Лучшая песня — Норман Гимбл, Дэвид Шайр
1980 — Золотой Глобус, Победитель в категориях:
Лучшая актриса (драма) — Сэлли Филд

Постер

Релиз: Studio RAK & Co

If your ratio falls below 0.3, you will not be able to download Torrents! More about the rating.

[erzsebet.pl].t240.torrent
Torrent: Registered   [ 2017-12-02 16:22 ]

Download .torrent

Download

15 KB

Status: checked
Completed: 16 times
Size: 1.47 GB
terms.php

#1

02-Dec-2017 16:22

[Profile]  [PM] 
Display posts:    

You cannot post new topics in this forum
You cannot reply to topics in this forum
You cannot edit your posts in this forum
You cannot delete your posts in this forum
You cannot vote in polls in this forum
You cannot attach files in this forum
You can download files in this forum
User agreement
For copyright holders
Advertise on this site

Скачайте на халяву через торрент на трекере erzsebet.pl

!ATTENTION!
The site does not give electronic versions of products, and is engaged only in a collecting and cataloguing of the references sent and published at a forum by our readers. If you are the legal owner of any submitted material and do not wish that the reference to it was in our catalogue, contact us and we shall immediately remove her. Files for an exchange on tracker are given by users of a site, and the administration does not bear the responsibility for their maintenance. The request to not fill in the files protected by copyrights, and also files of the illegal maintenance!