Крестный отец, часть 3 / The Godfather: Part III (Фрэнсис Форд Коппола /Francis Ford Coppola) [1990, США, Криминальная драма, DVDRip] AVO (Андрей Гаврилов)

DL-List and Torrent activity
Size:  1.41 GB   |    Registered:  2 years 9 months   |    Completed:  16 times
Seeders:  11  
 
   
 
 

erzsebet.org ®

Longevity:
2 years 9 months
Posts:
47596

[Quote] 

Крестный отец, часть 3 / The Godfather: Part III
Год выпуска: 1990
Страна: США
Жанр: Криминальная драма
Продолжительность: 2:50:25
Перевод: Авторский (одноголосый) Андрей Гаврилов
Режиссер: Фрэнсис Форд Коппола /Francis Ford Coppola
В ролях: Аль Пачино /Al Pacino/, Дайэн Китон /Diane Keaton/, Энди Гарсиа /Andy Garcia/, Талия Шайр /Talia Shire/, София Коппола /Sofia Coppola/, Джо Мантенья /Joe Mantegna/, Илай Уоллак /Eli Wallach/, Бриджет Фонда /Bridget Fonda/, Раф Валлоне /Raf Vallone/, Джордж Хэмилтон /George Hamilton/-Описание: Завершающая часть знаменитой киносаги о мафии. Прошли годы и заметно постаревший дон Майкл Корлеоне (Аль Пачино) намерен всецело отказаться от незаконного бизнеса и перейти из теневой в легальную экономику. Но все не так уж просто, нужно одобрение Ватикана, а тут сплошные интриги, как и везде. Едва удается дону спасти свою жизнь во время заварушки в Атлантик-сити. Семейные проблемы прослаиваются проблемами мафиозного клана и происками недоброжелателей. Все это по-копполовски крупномасштабно, академично и столь же динамично и легко, как в первой и во второй частях саги. Номинации: за лучший фильм, мужскую роль второго плана (Гарсиа), режиссуру, операторскую работу, монтаж, песню (Кармайн Коппола, музыка, Джон Беттис, слова), работу художника (Дин Тавуларис) и декорации (Гэри Феттис). (с) Иванов М.-Информация о фильме в базе IMDB
Доп. информация:

Награды и номинации

1991 - ОСКАР
Номинирован в категориях:
1 - Лучший фильм
Фрэнсис Форд Коппола /Francis Ford Coppola/
2 - Лучший режиссер
Фрэнсис Форд Коппола /Francis Ford Coppola/
3 - Лучший актер второго плана
Энди Гарсиа /Andy Garcia/
4 - Лучшая работа художника
Дин Тавуларис /Dean Tavoularis/
5 - Лучшая операторская работа
Гордон Уиллис /Gordon Willis/
6 - Лучший монтаж
Уолтер Мерч /Walter Murch/
Лиза Фрухтмэн /Lisa Fruchtman/
Бэрри Мэлкин /Barry Malkin/
7 - Лучшая песня
Кармайн Коппола /Carmine Coppola/
Качество: DVDRip
Формат: AVI
Видео кодек: XviD
Аудио кодек: mp3
Видео: 608x352, 23,976 Гц, 982 kbps
Аудио: 44100 Гц, Стерео, 192 Кбит/сек

Скриншоты

MediaInfo

General
Format : AVI
Format/Info : Audio Video Interleave
File size : 1.41 GiB
Duration : 2 h 50 min
Overall bit rate : 1 183 kb/s
Writing application : VirtualDubMod 1.5.10.1 (build 2366/release)
Writing library : VirtualDubMod build 2366/release
Video
ID : 0
Format : MPEG-4 Visual
Format profile : Advanced [email protected]
Format settings, BVOP : 1
Format settings, QPel : No
Format settings, GMC : No warppoints
Format settings, Matrix : Custom
Codec ID : XVID
Codec ID/Hint : XviD
Duration : 2 h 50 min
Bit rate : 982 kb/s
Width : 608 pixels
Height : 352 pixels
Display aspect ratio : 1.727
Frame rate : 23.976 (24000/1001) FPS
Color space : YUV
Chroma subsampling : 4:2:0
Bit depth : 8 bits
Scan type : Progressive
Compression mode : Lossy
Bits/(Pixel*Frame) : 0.191
Stream size : 1.17 GiB (83%)
Writing library : XviD 0039 build=2005.09.25 (UTC 2005-09-25)
Audio
ID : 1
Format : MPEG Audio
Format version : Version 1
Format profile : Layer 3
Codec ID : 55
Codec ID/Hint : MP3
Duration : 2 h 50 min
Bit rate mode : Constant
Bit rate : 192 kb/s
Channel(s) : 2 channels
Sampling rate : 44.1 kHz
Compression mode : Lossy
Stream size : 234 MiB (16%)
Alignment : Split accross interleaves
Interleave, duration : 42 ms (1.00 video frame)
Interleave, preload duration : 500 ms
Language : Russian
Примечание: DVDRip взят из осла, звук - с VHS; сведено с помощью VirtualDubMod и SoundForge.
Мои раздачи на erzsebet.org фильмов с авторским переводом (Михалев, Гаврилов и др.)
Желаю приятного просмотра.

If your ratio falls below 0.3, you will not be able to download Torrents! More about the rating.

[erzsebet.pl].t241.torrent
Torrent: Registered   [ 2017-12-02 16:22 ]

Download .torrent

Download

15 KB

Status: checked
Completed: 16 times
Size: 1.41 GB
terms.php

#1

02-Dec-2017 16:22

[Profile]  [PM] 
Display posts:    

You cannot post new topics in this forum
You cannot reply to topics in this forum
You cannot edit your posts in this forum
You cannot delete your posts in this forum
You cannot vote in polls in this forum
You cannot attach files in this forum
You can download files in this forum
User agreement
For copyright holders
Advertise on this site

Скачайте на халяву через торрент на трекере erzsebet.pl

!ATTENTION!
The site does not give electronic versions of products, and is engaged only in a collecting and cataloguing of the references sent and published at a forum by our readers. If you are the legal owner of any submitted material and do not wish that the reference to it was in our catalogue, contact us and we shall immediately remove her. Files for an exchange on tracker are given by users of a site, and the administration does not bear the responsibility for their maintenance. The request to not fill in the files protected by copyrights, and also files of the illegal maintenance!