Домохозяйка / Housewife (Альфред Э. Грин / Alfred E. Green) [1934, США, драма, WEB-DLRip] VO + Sub Eng + Original Eng

DL-List and Torrent activity
Size:  1.1 GB   |    Registered:  2 years 9 months   |    Completed:  16 times
Seeders:  2  
 
   
 
 

erzsebet.org ®

Longevity:
2 years 9 months
Posts:
47596

[Quote] 

Домохозяйка / Housewife
Страна: США
Студии: Warner Bros. Pictures
Жанр: драма
Год выпуска: 1934
Продолжительность: 01:08:50
Перевод: Одноголосый закадровый - Владимир Воронцов (-Доцент-)
Субтитры: русские (только на песню), английские
Оригинальная аудиодорожка: английский
Режиссер: Альфред Э. Грин / Alfred E. Green
Композитор: Хайнц Рёмхельд / Heinz Roemheld
В ролях: Джордж Брент / George Brent ... William Reynolds
Бетт Дэвис / Bette Davis ... Patricia Berkeley
Энн Дворак / Ann Dvorak ... Nan
Джон Холлидэй / John Halliday ... Paul
Рут Доннелли / Ruth Donnelly ... Dora
Хобарт Кавано / Hobart Cavanaugh ... George
Роберт Бэррат / Robert Barrat ... Sam Blake
Джозеф Которн / Joseph Cawthorn (в титрах: Joe Cawthorne) ... Krueger
Фил Риган / Phil Regan ... Radio Singer
Уиллард Робертсон / Willard Robertson ... Judge
Ронни Косби / Ronnie Cosby ... Buddy Reynolds
Лейла Беннетт / Leila Bennett ... Jenny
Гарри Тайлер / Harry Tyler ... Mr. Simmons
Чарльз Коулмэн / Charles Coleman ... Bolton
Уильям Б. Дэвидсон / William B. Davidson ... Nan's Lawyer, в титрах не указан
Билл Эллиотт / Bill Elliott ... Clerk, в титрах не указан

Описание: Нэн Рейнольдс изо всех сил пытается вести домашнее хозяйство на скромную зарплату ее кроткого мужа Билла, офис-менеджера. Она призывает его искать лучшую работу в другом месте, но он не склонен к риску, и отсутствие у него амбиций влияет на отношения супругов отрицательно.
По прошествии времени, Билл всё же уступает жене, и открывает свое собственное агентство на деньги, которые она сумела сохранить. Вдохновленный Нэн, он переманивает крупного клиента у своей бывшей фирмы и нанимает Патрицию Беркли, которая училась вместе с Нэн и Биллом в средней школе. Билл проводит много времени с Патрицией и вскоре влюбляется в нее...
--Фильмография Бетт Дэвис--БОЛЬШОЕ СПАСИБО:
Перевод и озвучивание фильма - Владимир Воронцов (-Доцент-)
Работа со звуком - AlekceyR76
Также Большое Спасибо всем, кто принял участие в появлении перевода и озвучки к этому фильму:
Магда, Lafajet, jasenka, елена 22, yanaelisa, cementit, Ugo927, voostorg, mumzik69, surzhoks, sindzi, HippopotamusIV, борюська, Владимир_ptz
--Сэмпл: http://multi-up.com/1168685
Качество видео: : WEB-DLRip
Формат видео: AVI
Видео: XviD, 704x512 (1.38:1), 23.976 fps, 1883 Kbps
Аудио 1: AC3, 48.0 KHz, 2 ch., 192 Kbps (русский одноголосый закадровый перевод) - Владимир Воронцов (-Доцент-)
Аудио 2: AC3, 48.0 KHz, 2 ch., 192 Kbps (оригинальная английская звуковая дорожка)

MediaInfo

Общее
Полное имя : I:\раздачи\Housewife 1934\Housewife.avi
Формат : AVI
Формат/Информация : Audio Video Interleave
Размер файла : 1,10 Гбайт
Продолжительность : 1 ч. 8 м.
Общий поток : 2281 Кбит/сек
Программа кодирования : VirtualDubMod 1.5.10.3 | www.virtualdub-fr.org || (build 2550/release)
Библиотека кодирования : VirtualDubMod build 2550/release
Видео
Идентификатор : 0
Формат : MPEG-4 Visual
Профиль формата : Advanced [email protected]
Параметр BVOP формата : 2
Параметр QPel формата : Нет
Параметр GMC формата : Без точки перехода
Параметр матрицы формата : Default (H.263)
Идентификатор кодека : DX50
Идентификатор кодека/Подсказка : DivX 5
Продолжительность : 1 ч. 8 м.
Битрейт : 1883 Кбит/сек
Ширина : 704 пикселя
Высота : 512 пикселей
Соотношение сторон : 1,375
Частота кадров : 23,976 (24000/1001) кадра/сек
Частота кадров в оригинале : 23,976 (23976/1000) кадра/сек
Цветовое пространство : YUV
Субдискретизация насыщенности : 4:2:0
Битовая глубина : 8 бит
Тип развёртки : Прогрессивная
Метод сжатия : С потерями
Бит/(Пиксели*Кадры) : 0.218
Размер потока : 927 Мбайт (83%)
Библиотека кодирования : XviD 73
Аудио #1
Идентификатор : 1
Формат : AC-3
Формат/Информация : Audio Coding 3
Параметр Endianness формата : Big
Идентификатор кодека : 2000
Продолжительность : 1 ч. 8 м.
Вид битрейта : Постоянный
Битрейт : 192 Кбит/сек
Каналы : 2 канала
Расположение каналов : Front: L R
Частота : 48,0 КГц
Частота кадров : 31,250 кадров/сек (1536 spf)
Битовая глубина : 16 бит
Метод сжатия : С потерями
Размер потока : 94,5 Мбайт (8%)
Выравнивание : Разделение по промежуткам
Продолжительность промежутка : 42 мс. (1,00 видеокадр)
Время предзагрузки промежутка : 500 мс.
ServiceKind/String : Complete Main
Аудио #2
Идентификатор : 2
Формат : AC-3
Формат/Информация : Audio Coding 3
Параметр Endianness формата : Big
Идентификатор кодека : 2000
Продолжительность : 1 ч. 8 м.
Вид битрейта : Постоянный
Битрейт : 192 Кбит/сек
Каналы : 2 канала
Расположение каналов : Front: L R
Частота : 48,0 КГц
Частота кадров : 31,250 кадров/сек (1536 spf)
Битовая глубина : 16 бит
Метод сжатия : С потерями
Размер потока : 94,5 Мбайт (8%)
Выравнивание : Разделение по промежуткам
Продолжительность промежутка : 42 мс. (1,00 видеокадр)
Время предзагрузки промежутка : 500 мс.
ServiceKind/String : Complete Main

If your ratio falls below 0.3, you will not be able to download Torrents! More about the rating.

[erzsebet.pl].t242.torrent
Torrent: Registered   [ 2017-12-02 16:22 ]

Download .torrent

Download

12 KB

Status: checked
Completed: 16 times
Size: 1.1 GB
terms.php

#1

02-Dec-2017 16:22

[Profile]  [PM] 
Display posts:    

You cannot post new topics in this forum
You cannot reply to topics in this forum
You cannot edit your posts in this forum
You cannot delete your posts in this forum
You cannot vote in polls in this forum
You cannot attach files in this forum
You can download files in this forum
User agreement
For copyright holders
Advertise on this site

Скачайте на халяву через торрент на трекере erzsebet.pl

!ATTENTION!
The site does not give electronic versions of products, and is engaged only in a collecting and cataloguing of the references sent and published at a forum by our readers. If you are the legal owner of any submitted material and do not wish that the reference to it was in our catalogue, contact us and we shall immediately remove her. Files for an exchange on tracker are given by users of a site, and the administration does not bear the responsibility for their maintenance. The request to not fill in the files protected by copyrights, and also files of the illegal maintenance!