Повторный брак / Мерзавец / Les Mariés de l'an deux (Жан-Поль Раппно / Jean-Paul Rappeneau) [1971, Франция, Италия, Румыния, комедия, приключения, BDRip] Dub (Союзмультфильм) + MVO (Пятый канал)

DL-List and Torrent activity
Size:  1.46 GB   |    Registered:  2 years 9 months   |    Completed:  16 times
Seeders:  2  
 
   
 
 

erzsebet.org ®

Longevity:
2 years 9 months
Posts:
47596

[Quote] 

Повторный брак / Мерзавец / Les Mariés de l'an deux
Страна: Франция, Италия, Румыния
Жанр: комедия, приключения
Год выпуска: 1971
Продолжительность: 01:38:37
Перевод: Профессиональный (дублированный) Дубляж, "Союзмультфильм" (вставки MVO)
Перевод 2: Профессиональный (многоголосый закадровый) ТРК "Пятый канал"
Субтитры: нет
Режиссер: Жан-Поль Раппно / Jean-Paul Rappeneau
В ролях: Жан-Поль Бельмондо, Марлен Жобер, Лаура Антонелли, Мишель Оклер, Жюльен Гиомар, Марио Давид, Шарль Деннер, Жорж Бэллер, Поль Кроше
Описание: Николя Филибер открыл для себя Америку в 1787 году, нелегально прибыв туда в трюме корабля Вестиндской компании. При себе у него не было ни документов, ни денег, и для начала его отправили в тюрьму, где он пробыл три дня. А уже через пять лет на него с завистью смотрели граждане страны, так плохо принявшей его. Благодаря своей предприимчивости он быстро разбогател и собирался жениться на единственной дочери одного из богатейших людей страны, крупного торговца зерном, чьи тридцать кораблей доставляли товар во все концы света. Во время свадьбы происходит неожиданный инцидент: один из отвергнутых поклонников невесты заявляет, что жених уже состоит в браке и поэтому не имеет права жениться. Пастор прерывает церемонию бракосочетания и предлагает Николя отправиться во Францию и развестись со своей женой…
Сэмпл: http://multi-up.com/1168613
Качество видео: BDRip (Исходник Povtornyj.brak.1971.MPEG-4-AVC.BluRay-Remux.1080p.mkv / KinoZal)
Формат видео: AVI
Видео: XviD 73, 720x432, (5:3), 24,000 fps, 1716 Кбит/с, 8 бит, 0.23 bit/pixel
Аудио: Русский (АС3, 2 ch (Front: L R), 48,0 KHz, 192 Kbps)
Аудио 2: Русский (АС3, 2 ch (Front: L R), 48,0 KHz, 192 Kbps)

MediaInfo

Общее
Полное имя : D:\Видеофильмы\В и д е о\Повторный брак ( комедия, приключения 1971 год).avi
Формат : AVI
Формат/Информация : Audio Video Interleave
Размер файла : 1,46 Гбайт
Продолжительность : 1 ч. 38 м.
Общий поток : 2114 Кбит/сек
Программа кодирования : VirtualDubMod 1.5.10.2 (build 2540/release)
Библиотека кодирования : VirtualDubMod build 2540/release
Видео
Идентификатор : 0
Формат : MPEG-4 Visual
Профиль формата : Advanced [email protected]
Параметр BVOP формата : 2
Параметр QPel формата : Нет
Параметр GMC формата : Без точки перехода
Параметр матрицы формата : Выборочная
Идентификатор кодека : XVID
Идентификатор кодека/Подсказка : XviD
Продолжительность : 1 ч. 38 м.
Битрейт : 1716 Кбит/сек
Ширина : 720 пикселей
Высота : 432 пикселя
Соотношение сторон : 5:3
Частота кадров : 24,000 кадра/сек
Цветовое пространство : YUV
Субдискретизация насыщенности : 4:2:0
Битовая глубина : 8 бит
Тип развёртки : Прогрессивная
Метод сжатия : С потерями
Бит/(Пиксели*Кадры) : 0.230
Размер потока : 1,18 Гбайт (81%)
Библиотека кодирования : XviD 73
Аудио #1
Идентификатор : 1
Формат : AC-3
Формат/Информация : Audio Coding 3
Расширение режима : CM (complete main)
Параметр Endianness формата : Big
Идентификатор кодека : 2000
Продолжительность : 1 ч. 38 м.
Вид битрейта : Постоянный
Битрейт : 192 Кбит/сек
Каналы : 2 канала
Расположение каналов : Front: L R
Частота : 48,0 КГц
Частота кадров : 31,250 кадров/сек (1536 spf)
Метод сжатия : С потерями
Размер потока : 135 Мбайт (9%)
Выравнивание : Разделение по промежуткам
Продолжительность промежутка : 42 мс. (1,00 видеокадр)
Время предзагрузки промежутка : 500 мс.
Аудио #2
Идентификатор : 2
Формат : AC-3
Формат/Информация : Audio Coding 3
Расширение режима : CM (complete main)
Параметр Endianness формата : Big
Идентификатор кодека : 2000
Продолжительность : 1 ч. 38 м.
Вид битрейта : Постоянный
Битрейт : 192 Кбит/сек
Каналы : 2 канала
Расположение каналов : Front: L R
Частота : 48,0 КГц
Частота кадров : 31,250 кадров/сек (1536 spf)
Метод сжатия : С потерями
Размер потока : 135 Мбайт (9%)
Выравнивание : Разделение по промежуткам
Продолжительность промежутка : 42 мс. (1,00 видеокадр)
Время предзагрузки промежутка : 500 мс.

Скриншот c названием фильма

Скриншоты

If your ratio falls below 0.3, you will not be able to download Torrents! More about the rating.

[erzsebet.pl].t244.torrent
Torrent: Registered   [ 2017-12-02 16:22 ]

Download .torrent

Download

15 KB

Status: checked
Completed: 16 times
Size: 1.46 GB
terms.php

#1

02-Dec-2017 16:22

[Profile]  [PM] 
Display posts:    

You cannot post new topics in this forum
You cannot reply to topics in this forum
You cannot edit your posts in this forum
You cannot delete your posts in this forum
You cannot vote in polls in this forum
You cannot attach files in this forum
You can download files in this forum
User agreement
For copyright holders
Advertise on this site

Скачайте на халяву через торрент на трекере erzsebet.pl

!ATTENTION!
The site does not give electronic versions of products, and is engaged only in a collecting and cataloguing of the references sent and published at a forum by our readers. If you are the legal owner of any submitted material and do not wish that the reference to it was in our catalogue, contact us and we shall immediately remove her. Files for an exchange on tracker are given by users of a site, and the administration does not bear the responsibility for their maintenance. The request to not fill in the files protected by copyrights, and also files of the illegal maintenance!