Каникулы в облаках / Prázdniny v oblacích (Ян Валашек / Jan Valasek) [1959, Чехословакия, семейный, экранизация, TVRip] VO (Семен Ващенко) + Sub Rus + Original Cze

Reply to topic
DL-List and Torrent activity
Size:  804 MB   |    Registered:  3 years 3 months   |    Completed:  16 times

Seeder not seen: 3 years 3 months

 
   
 
 
Author Message

erzsebet.org ®

Longevity: 3 years 2 months

Posts: 47596

Post 02-Dec-2017 16:22

[Quote]

Каникулы в облаках / Prázdniny v oblacích
Страна: Чехословакия
Жанр: семейный, экранизация
Год выпуска: 1959
Продолжительность: 01:13:52
Перевод: Одноголосый закадровый (Семен Ващенко)
Субтитры: русские
Оригинальная аудиодорожка: чешский
Режиссер: Ян Валашек / Jan Valasek
В ролях: Зузана Ондроухова / Zuzana Ondrouchova, Властимил Бицан / Vlastimil Bican, Богоуш Бернауэр / Bohous Bernauer, Станислав Нойманн / Stanislav Neumann, Отто Лацкович / Otto Lackovic, Йозеф Блага / Josef Blaha, Иржина Била / Jirina Bíla
Описание: По мотивам книги Богумила Ржиги "О самолете канети".
Мальчики Войта и Пепичек мечтали стать летчиками. Во время каникул они познакомились с Гейдуком, пилотом вертолёта. Гейдук прокатил ребят на своей машине и даже позволил Войте управлять ей в полёте. Однажды ребята, без разрешения, поднялись на вертолёте...

Доп. информация
:
Русские субтитры изготовлены Berendey на основе монтажных листов советского дубляжа, которые предоставил GoodLuck.
Перевод к/ст "Мосфильм" в редакции Berendey при участии Ромка и dido123; озвучание - Семён Ващенко.
Сэмпл: http://multi-up.com/1168266
Качество видео: TVRip
Формат видео: AVI
Видео: DviX 5, 720x544 (4:3), 25.000 fps, 1250 kbps
Аудио: MP3, 48000 Hz, 2 ch, 128 kbps (русский)
Аудио 2: MP3, 48000 Hz, 2 ch, 128 kbps (чешский)
Формат субтитров: softsub (SRT)

MediaInfo

General
Complete name : F:\Рутрекер\Каникулы в облаках\prazdniny v oblacich (1959).avi
Format : AVI
Format/Info : Audio Video Interleave
File size : 804 MiB
Duration : 1h 13mn
Overall bit rate : 1 521 Kbps
Writing application : VirtualDubMod 1.5.10.2 (build 2542/release)
Writing library : VirtualDubMod build 2542/release
Video
ID : 0
Format : MPEG-4 Visual
Format settings, BVOP : 1
Format settings, QPel : No
Format settings, GMC : No warppoints
Format settings, Matrix : Default (H.263)
Muxing mode : Packed bitstream
Codec ID : DX50
Codec ID/Hint : DivX 5
Duration : 1h 13mn
Bit rate : 1 250 Kbps
Width : 720 pixels
Height : 544 pixels
Display aspect ratio : 4:3
Frame rate : 25.000 fps
Color space : YUV
Chroma subsampling : 4:2:0
Bit depth : 8 bits
Scan type : Progressive
Compression mode : Lossy
Bits/(Pixel*Frame) : 0.128
Stream size : 661 MiB (82%)
Writing library : DivX 2682
Audio #1
ID : 1
Format : MPEG Audio
Format version : Version 1
Format profile : Layer 3
Mode : Joint stereo
Mode extension : MS Stereo
Codec ID : 55
Codec ID/Hint : MP3
Duration : 1h 13mn
Bit rate mode : Constant
Bit rate : 128 Kbps
Channel(s) : 2 channels
Sampling rate : 48.0 KHz
Compression mode : Lossy
Stream size : 67.6 MiB (8%)
Alignment : Aligned on interleaves
Interleave, duration : 40 ms (1.00 video frame)
Interleave, preload duration : 504 ms
Audio #2
ID : 2
Format : MPEG Audio
Format version : Version 1
Format profile : Layer 3
Mode : Joint stereo
Mode extension : MS Stereo
Codec ID : 55
Codec ID/Hint : MP3
Duration : 1h 13mn
Bit rate mode : Constant
Bit rate : 128 Kbps
Channel(s) : 2 channels
Sampling rate : 48.0 KHz
Compression mode : Lossy
Stream size : 67.6 MiB (8%)
Alignment : Aligned on interleaves
Interleave, duration : 40 ms (1.00 video frame)
Interleave, preload duration : 504 ms
Writing library : LAME3.98.2

Скриншот c названием фильма

[erzsebet.pl].t249.torrent
Torrent: Registered [ 2017-12-02 16:22 ] · E31EF7CC4DF2A9F193A77F5536AECE998815753E

Download .torrent

Download

16 KB

Status: checked
Completed: 16 times
Size: 804 MB
terms.php
[Profile] [PM]
Display posts:    
Reply to topic

Current time is: 03-Mar 23:19

All times are UTC ± 0



You cannot post new topics in this forum
You cannot reply to topics in this forum
You cannot edit your posts in this forum
You cannot delete your posts in this forum
You cannot vote in polls in this forum
You cannot attach files in this forum
You can download files in this forum