Плохая партия / Не пара / Bad Match (Дэвид Чирчирилло / David Chirchirillo) [2017, США, Сингапур, триллер, WEB-DLRip] DVO

Reply to topic
DL-List and Torrent activity
Size:  1.45 GB   |    Registered:  3 years 3 months   |    Completed:  16 times

Seeder not seen: Never

 
   
 
 
Author Message

erzsebet.org ®

Longevity: 3 years 2 months

Posts: 47596

Post 02-Dec-2017 15:58

[Quote]

Плохая партия / Не пара / Bad Match
Страна: США, Сингапур
Жанр: триллер
Год выпуска: 2017
Продолжительность: 01:23:08-Перевод: Любительский (двухголосый закадровый) | RecentFilms
Субтитры: нет
Оригинальная аудиодорожка: нет-Режиссер: Дэвид Чирчирилло / David Chirchirillo-В ролях: Лили Симмонс, Норин ДеВулф, Чейз Уильямсон, Джек Катмор-Скотт, Кристин Донлон, Трент Хаага, Брэндон Скотт, Талиса Фридман-Описание: У Харриса всё отлично - веселые друзья, интересная работа, перспектива повышения и нескончаемая череда красивых девушек благодаря приложению для знакомств. Но когда свидание с одной из них заканчивается не так, как он привык, его идеальная жизнь быстро выходит из-под контроля.-Доп. инфо: присутствует ненормативная лексика!-Тип релиза: WEB-DLRip
Контейнер: AVI
Видео: 704x288 (2.44:1), 23.976 fps, XviD build 73 ~2303 kbps avg, 0.47 bit/pixel
Аудио: 48 kHz, AC3 Dolby Digital, 2/0 (L,R) ch, ~192 kbps-Скачать сэмпл-

MediaInfo

Код:Format : AVI
Format/Info : Audio Video Interleave
File size : 1.45 GiB
Duration : 1 h 23 min
Overall bit rate : 2 505 kb/s
Writing application : VirtualDubMod 1.5.10.3 | www.virtualdub-fr.org || (build 2550/release)
Writing library : VirtualDubMod build 2550/release
Video
ID : 0
Format : MPEG-4 Visual
Format profile : Advanced [email protected]
Format settings : BVOP1 / Custom Matrix
Format settings, BVOP : 1
Format settings, QPel : No
Format settings, GMC : No warppoints
Format settings, Matrix : Custom
Codec ID : XVID
Codec ID/Hint : XviD
Duration : 1 h 23 min
Bit rate : 2 303 kb/s
Width : 704 pixels
Height : 288 pixels
Display aspect ratio : 2.40:1
Frame rate : 23.976 (24000/1001) FPS
Color space : YUV
Chroma subsampling : 4:2:0
Bit depth : 8 bits
Scan type : Progressive
Compression mode : Lossy
Bits/(Pixel*Frame) : 0.474
Stream size : 1.34 GiB (92%)
Writing library : XviD 73
Audio
ID : 1
Format : AC-3
Format/Info : Audio Coding 3
Format settings, Endianness : Big
Codec ID : 2000
Duration : 1 h 23 min
Bit rate mode : Constant
Bit rate : 192 kb/s
Channel(s) : 2 channels
Channel positions : Front: L R
Sampling rate : 48.0 kHz
Frame rate : 31.250 FPS (1536 SPF)
Bit depth : 16 bits
Compression mode : Lossy
Stream size : 114 MiB (8%)
Alignment : Split accross interleaves
Interleave, duration : 42 ms (1.00 video frame)
Interleave, preload duratio : 500 ms
Service kind : Complete Main

Скриншоты

[erzsebet.pl].t25.torrent
Torrent: Registered [ 2017-12-02 15:58 ] · C6AD356F1435264E4CD17414F3E35AE3319171FF

Download .torrent

Download

15 KB

Status: checked
Completed: 16 times
Size: 1.45 GB
terms.php
[Profile] [PM]
Display posts:    
Reply to topic

Current time is: 02-Mar 22:22

All times are UTC ± 0



You cannot post new topics in this forum
You cannot reply to topics in this forum
You cannot edit your posts in this forum
You cannot delete your posts in this forum
You cannot vote in polls in this forum
You cannot attach files in this forum
You can download files in this forum