Врата дьявола / Devil's Doorway (Энтони Манн / Anthony Mann) [1950, США, драма, вестерн, DVDRip] VO + Original Eng

DL-List and Torrent activity
Size:  1.46 GB   |    Registered:  2 years 9 months   |    Completed:  16 times
Seeders:  7  
 
   
 
 

erzsebet.org ®

Longevity:
2 years 9 months
Posts:
47596

[Quote] 

Врата дьявола / Devil's Doorway
Страна: США
Студия: Metro-Goldwyn-Mayer (MGM)
Жанр: драма, вестерн
Год выпуска: 1950
Продолжительность: 01:24:19
Перевод: Одноголосый закадровый - Дмитрий Есарев
Субтитры: нет
Оригинальная аудиодорожка: английский
Режиссер: Энтони Манн / Anthony Mann
Композитор: Даниил Амфитеатров / Daniele Amfitheatrof
В ролях: Роберт Тейлор / Robert Taylor ... Lance Poole
Луи Кэлхерн / Louis Calhern ... Verne Coolan
Пола Рэймонд / Paula Raymond ... Orrie Masters
Маршалл Томпсон / Marshall Thompson ... Rod MacDougall
Джеймс Митчелл / James Mitchell ... Red Rock
Эдгар Бьюкенен / Edgar Buchanan ... Zeke Carmody
Риз Уильямс / Rhys Williams ... Scotty MacDougall

Спринг Байинтон / Spring Byington ... Mrs. Masters
Джеймс Милликэн / James Millican ... Ike Stapleton
Брюс Коулинг / Bruce Cowling ... Lt. Grimes
Фриц Лейбер / Fritz Leiber ... Mr. Poole
Гарри Энтрим / Harry Antrim ... Dr. C.O. MacQuillan
Чиф Джон Биг Три / Chief John Big Tree ... Thundercloud
Уильям Бэйли / William Bailey ... Posse Member, в титрах не указан
Вивиан Браун / Vivian Brown ... Mrs. Campbell, в титрах не указана

Описание: Лэнс Пул – индеец, который получил Медаль Почёта за боевые заслуги во время битвы при Геттисберге, после войны возвращается в своё племя с намерением заняться разведением скота. Но мирную жизнь ветерана нарушают белые фермеры-овцеводы, которые хотят захватить богатые сочной травой земли Лэнса, настраивая якобы цивилизованное белое население против племени. Никто не мог предвидеть, к каким трагическим последствиям это приведёт...--Фильмография Роберта Тейлора--БОЛЬШОЕ СПАСИБО:
Работа со звуком и реавторинг DVD - AlekceyR76
Перевод и озвучивание фильма - Дмитрий Есарев
Также Большое Спасибо всем, кто принял участие в появлении перевода и озвучки к этому фильму:
Магда, Lafajet, jasenka, елена 22, yanaelisa, Ugo927, voostorg, STICK24, surzhoks, борюська, cementit, HippopotamusIV, sindzi, leoder, Simpun
--Сэмпл: https://www.sendspace.com/file/wxomts
Качество видео: DVDRip
Формат видео: AVI
Видео: XviD, 640x480 (1.33:1), 23.976 fps, 2078 Kbps
Аудио 1: AC3, 48.0 KHz, 2 ch., 192 Kbps (русский одноголосый закадровый перевод) - Дмитрий Есарев
Аудио 2: AC3, 48.0 KHz, 2 ch., 192 Kbps (оригинальная английская звуковая дорожка)

MediaInfo

Общее
Полное имя : I:\раздачи\Devil's Doorway 1950\Devil's Doorway.avi
Формат : AVI
Формат/Информация : Audio Video Interleave
Размер файла : 1,46 Гбайт
Продолжительность : 1 ч. 24 м.
Общий поток : 2476 Кбит/сек
Программа кодирования : VirtualDubMod 1.5.10.3 | www.virtualdub-fr.org || (build 2550/release)
Библиотека кодирования : VirtualDubMod build 2550/release
Видео
Идентификатор : 0
Формат : MPEG-4 Visual
Профиль формата : Advanced [email protected]
Параметр BVOP формата : 2
Параметр QPel формата : Нет
Параметр GMC формата : Без точки перехода
Параметр матрицы формата : Default (H.263)
Идентификатор кодека : DX50
Идентификатор кодека/Подсказка : DivX 5
Продолжительность : 1 ч. 24 м.
Битрейт : 2078 Кбит/сек
Ширина : 640 пикселей
Высота : 480 пикселей
Соотношение сторон : 4:3
Частота кадров : 23,976 (24000/1001) кадра/сек
Цветовое пространство : YUV
Субдискретизация насыщенности : 4:2:0
Битовая глубина : 8 бит
Тип развёртки : Прогрессивная
Метод сжатия : С потерями
Бит/(Пиксели*Кадры) : 0.282
Размер потока : 1,22 Гбайт (84%)
Библиотека кодирования : XviD 73
Аудио #1
Идентификатор : 1
Формат : AC-3
Формат/Информация : Audio Coding 3
Параметр Endianness формата : Big
Идентификатор кодека : 2000
Продолжительность : 1 ч. 24 м.
Вид битрейта : Постоянный
Битрейт : 192 Кбит/сек
Каналы : 2 канала
Расположение каналов : Front: L R
Частота : 48,0 КГц
Частота кадров : 31,250 кадров/сек (1536 spf)
Битовая глубина : 16 бит
Метод сжатия : С потерями
Размер потока : 116 Мбайт (8%)
Выравнивание : Разделение по промежуткам
Продолжительность промежутка : 42 мс. (1,00 видеокадр)
Время предзагрузки промежутка : 500 мс.
ServiceKind/String : Complete Main
Аудио #2
Идентификатор : 2
Формат : AC-3
Формат/Информация : Audio Coding 3
Параметр Endianness формата : Big
Идентификатор кодека : 2000
Продолжительность : 1 ч. 24 м.
Вид битрейта : Постоянный
Битрейт : 192 Кбит/сек
Каналы : 2 канала
Расположение каналов : Front: L R
Частота : 48,0 КГц
Частота кадров : 31,250 кадров/сек (1536 spf)
Битовая глубина : 16 бит
Метод сжатия : С потерями
Размер потока : 116 Мбайт (8%)
Выравнивание : Разделение по промежуткам
Продолжительность промежутка : 42 мс. (1,00 видеокадр)
Время предзагрузки промежутка : 500 мс.
ServiceKind/String : Complete Main

If your ratio falls below 0.3, you will not be able to download Torrents! More about the rating.

[erzsebet.pl].t252.torrent
Torrent: Registered   [ 2017-12-02 16:22 ]

Download .torrent

Download

15 KB

Status: checked
Completed: 16 times
Size: 1.46 GB
terms.php

#1

02-Dec-2017 16:22

[Profile]  [PM] 
Display posts:    

You cannot post new topics in this forum
You cannot reply to topics in this forum
You cannot edit your posts in this forum
You cannot delete your posts in this forum
You cannot vote in polls in this forum
You cannot attach files in this forum
You can download files in this forum
User agreement
For copyright holders
Advertise on this site

Скачайте на халяву через торрент на трекере erzsebet.pl

!ATTENTION!
The site does not give electronic versions of products, and is engaged only in a collecting and cataloguing of the references sent and published at a forum by our readers. If you are the legal owner of any submitted material and do not wish that the reference to it was in our catalogue, contact us and we shall immediately remove her. Files for an exchange on tracker are given by users of a site, and the administration does not bear the responsibility for their maintenance. The request to not fill in the files protected by copyrights, and also files of the illegal maintenance!