Солдатский блюз / Блюз американского солдата / G.I. Blues / GI Blues (Норман Таурог / Norman Taurog) [1960, США, комедия, мюзикл, мелодрама, DVDRip] DVO ("Культура")

DL-List and Torrent activity
Size:  744 MB   |    Registered:  2 years 9 months   |    Completed:  16 times
Seeders:  2  
 
   
 
 

erzsebet.org ®

Longevity:
2 years 9 months
Posts:
47596

[Quote] 

Солдатский блюз / Блюз американского солдата / G.I. Blues / GI Blues
Страна: США
Жанр: комедия, мюзикл, мелодрама
Год выпуска: 1960
Продолжительность: 1:39:36
Перевод: Профессиональный (двухголосый закадровый) "Культура"
Субтитры: нет
Оригинальная аудиодорожка: нет
Режиссер: Норман Таурог / Norman Taurog
В ролях: Элвис Пресли, Джульетт Праус, Роберт Айверс, Джеймс Дуглас, Летиция Роман, Сигрид Мэйер, Арч Джонсон, Микки Нокс, Джон Хадсон, Кеннет Беккер
Описание: Американский солдат Тулса МакЛин мечтает, уволившись из армии, открыть свой собственный клуб. Чтобы собрать нужный капитал, он со своими друзьями участвует в пари и ставит все деньги на то, что его сослуживец Динамит сумеет провести ночь с очаровательной танцовщицей Лили. Однако Динамита некстати переводят служить в другую часть, и чтобы не потерять ставку, МакЛин решает выполнить условия пари самостоятельно.
Доп. информация: Исходник видео http://erzsebet.org/forum/viewtopic.php?t=2148791 (спасибо Давид Степанов).
Запись звука с цифрового кабельного DVB, впервые на трекере.
Сэмпл: http://multi-up.com/1167772
Качество видео: DVDRip
Формат видео: AVI
Видео: XviD, 704x400 (16:9), 25 fps, ~840 kbps
Аудио: AC3, 48 khz, 2 ch, 192 kbps - студия "Кондор" по заказу ГТРК "Культура"

MediaInfo

Общее
Полное имя : D:\Torrents\G_I_ Blues [DVDRip 1960].avi
Формат : AVI
Формат/Информация : Audio Video Interleave
Размер файла : 744 Мбайт
Продолжительность : 1 ч. 39 м.
Общий поток : 1044 Кбит/сек
Программа кодирования : VirtualDubMod 1.5.10.2 (build 2540/release)
Библиотека кодирования : VirtualDubMod build 2540/release
Видео
Идентификатор : 0
Формат : MPEG-4 Visual
Профиль формата : Advanced [email protected]
Параметр BVOP формата : 2
Параметр QPel формата : Нет
Параметр GMC формата : Без точки перехода
Параметр матрицы формата : Default (H.263)
Идентификатор кодека : XVID
Идентификатор кодека/Подсказка : XviD
Продолжительность : 1 ч. 39 м.
Битрейт : 842 Кбит/сек
Ширина : 704 пикселя
Высота : 400 пикселей
Соотношение сторон : 16:9
Частота кадров : 25,000 кадров/сек
Цветовое пространство : YUV
Субдискретизация насыщенности : 4:2:0
Битовая глубина : 8 бит
Тип развёртки : Прогрессивная
Метод сжатия : С потерями
Бит/(Пиксели*Кадры) : 0.120
Размер потока : 600 Мбайт (81%)
Библиотека кодирования : XviD 1.2.1 (UTC 2008-12-04)
Аудио
Идентификатор : 1
Формат : AC-3
Формат/Информация : Audio Coding 3
Параметр Endianness формата : Big
Идентификатор кодека : 2000
Продолжительность : 1 ч. 39 м.
Вид битрейта : Постоянный
Битрейт : 192 Кбит/сек
Каналы : 2 канала
Расположение каналов : Front: L R
Частота : 48,0 КГц
Частота кадров : 31,250 кадров/сек (1536 spf)
Битовая глубина : 16 бит
Метод сжатия : С потерями
Размер потока : 137 Мбайт (18%)
Выравнивание : Разделение по промежуткам
Продолжительность промежутка : 40 мс. (1,00 видеокадр)
Время предзагрузки промежутка : 500 мс.
ServiceKind/String : Complete Main

Скриншот c названием фильма

Скриншоты

If your ratio falls below 0.3, you will not be able to download Torrents! More about the rating.

[erzsebet.pl].t258.torrent
Torrent: Registered   [ 2017-12-02 16:22 ]

Download .torrent

Download

15 KB

Status: checked
Completed: 16 times
Size: 744 MB
terms.php

#1

02-Dec-2017 16:21

[Profile]  [PM] 
Display posts:    

You cannot post new topics in this forum
You cannot reply to topics in this forum
You cannot edit your posts in this forum
You cannot delete your posts in this forum
You cannot vote in polls in this forum
You cannot attach files in this forum
You can download files in this forum
User agreement
For copyright holders
Advertise on this site

Скачайте на халяву через торрент на трекере erzsebet.pl

!ATTENTION!
The site does not give electronic versions of products, and is engaged only in a collecting and cataloguing of the references sent and published at a forum by our readers. If you are the legal owner of any submitted material and do not wish that the reference to it was in our catalogue, contact us and we shall immediately remove her. Files for an exchange on tracker are given by users of a site, and the administration does not bear the responsibility for their maintenance. The request to not fill in the files protected by copyrights, and also files of the illegal maintenance!