Унесенные ветром / Gone with the Wind (Виктор Флеминг) [1939, США, Мелодрама, DVDRip] MVO

DL-List and Torrent activity
Size:  2.74 GB   |    Registered:  2 years 9 months   |    Completed:  16 times
Seeders:  18  
 
   
 
 

erzsebet.org ®

Longevity:
2 years 9 months
Posts:
47596

[Quote] 

Унесенные ветром / Gone with the Wind
Год выпуска: 1939
Страна: США
Жанр: Мелодрама
Продолжительность: 03:31:47
Перевод: многоголосый профессиональный
Режиссер: Виктор Флеминг /Victor Fleming/, Сэм Вуд /Sam Wood/, Джордж Кьюкор /George Cukor
В ролях: Кларк Гэйбл /Clark Gable/, Вивьен Ли /Vivien Leigh/, Лесли Хауард /Leslie Howard/, Оливия де Хэвиллэнд /Olivia de Havilland/, Оскар Полк /Oscar Polk/, Хэтти МакДэниэл /Hattie McDaniel/, Эверетт Браун /Everett Brown/, Зэк Уильямс /Zack Williams/, Томас Митчелл /Thomas Mitchell/, Баттерфлай МакКуин /Butterfly McQueen
Описание: Известный у нас роман Маргарет Митчелл был написан в 1936 году и уже за первые три года переиздавался в США 48 раз! Фильм-экранизация не уступил роману, получил десяток "Оскаров" и стал вечнозеленой легендой мирового кино. История любви и приключений Ретта Батлера (Гэйбл) и Скарлетт О Хара (Ли) на фоне драматичных событий гражданской войны в США (60-е годы прошлого века) продолжает пленять сердца миллионов зрителей. Своим появлением на свет фильм во многом обязан одному из самых знаменитых голливудских продюсеров Дэвиду О. Селзнику. "Оскары" за лучший фильм, женскую роль (Вивьен Ли), женскую роль второго плана (Хэтти МакДэниэл), режиссуру (Виктор Флеминг), сценарий (Сидни Хауард), операторскую работу, монтаж, работу художников. Номинации за мужскую роль (Кларк Гэйбл), женскую роль второго плана (Оливия Де Хэвиллэнд), музыку, звук и визуальные эффекты.
Доп. информация:
Альтернативные раздачи
Раздачи сериала «Скарлетт»
Кто скачивает - не уходите с раздач, помогайте другим!
Качество: DVDRip
Формат: AVI
Видео кодек: DivX
Аудио кодек: AC3
Видео: 640x464, 25 fps, DivX Codec 5.x ~1500 kbps avg
Аудио: 48 kHz, AC3 Dolby Digital, 3/2 (L,C,R,l,r) + LFE ch, 384.00

Скриншоты

MediaInfo

General
Format : AVI
Format/Info : Audio Video Interleave
File size : 1.37 GiB
Duration : 1 h 37 min
Overall bit rate : 2 008 kb/s
Director : KAMO®
Genre : Drama
Writing application : VirtualDubMod 1.5.10.1 (build 2439/release)
Original source form/Name : Movie
Copyright : KAMO®
Video
ID : 0
Format : MPEG-4 Visual
Format settings, BVOP : 1
Format settings, QPel : No
Format settings, GMC : No warppoints
Format settings, Matrix : Default (H.263)
Muxing mode : Packed bitstream
Codec ID : DX50
Codec ID/Hint : DivX 5
Duration : 1 h 37 min
Bit rate : 1 614 kb/s
Nominal bit rate : 3 695 kb/s
Width : 640 pixels
Height : 464 pixels
Display aspect ratio : 1.379
Frame rate : 25.000 FPS
Color space : YUV
Chroma subsampling : 4:2:0
Bit depth : 8 bits
Scan type : Progressive
Compression mode : Lossy
Bits/(Pixel*Frame) : 0.217
Stream size : 1.10 GiB (80%)
Writing library : DivX 5.2.1 (WaffleDay) (UTC 2004-09-08)
Audio
ID : 1
Format : AC-3
Format/Info : Audio Coding 3
Mode extension : CM (complete main)
Format settings, Endianness : Big
Codec ID : 2000
Duration : 1 h 37 min
Bit rate mode : Constant
Bit rate : 384 kb/s
Channel(s) : 6 channels
Channel positions : Front: L C R, Side: L R, LFE
Sampling rate : 48.0 kHz
Frame rate : 31.250 FPS (1536 spf)
Bit depth : 16 bits
Compression mode : Lossy
Stream size : 268 MiB (19%)
Alignment : Split accross interleaves
Interleave, duration : 40 ms (1.00 video frame)
Interleave, preload duration : 500 ms

If your ratio falls below 0.3, you will not be able to download Torrents! More about the rating.

[erzsebet.pl].t263.torrent
Torrent: Registered   [ 2017-12-02 16:22 ]

Download .torrent

Download

14 KB

Status: checked
Completed: 16 times
Size: 2.74 GB
terms.php

#1

02-Dec-2017 16:21

[Profile]  [PM] 
Display posts:    

You cannot post new topics in this forum
You cannot reply to topics in this forum
You cannot edit your posts in this forum
You cannot delete your posts in this forum
You cannot vote in polls in this forum
You cannot attach files in this forum
You can download files in this forum
User agreement
For copyright holders
Advertise on this site

Скачайте на халяву через торрент на трекере erzsebet.pl

!ATTENTION!
The site does not give electronic versions of products, and is engaged only in a collecting and cataloguing of the references sent and published at a forum by our readers. If you are the legal owner of any submitted material and do not wish that the reference to it was in our catalogue, contact us and we shall immediately remove her. Files for an exchange on tracker are given by users of a site, and the administration does not bear the responsibility for their maintenance. The request to not fill in the files protected by copyrights, and also files of the illegal maintenance!