Дело Маттеи / Il caso Mattei (Франческо Рози / Francesco Rosi) [1972, Италия, криминальная драма, Screener] [Советская прокатная копия] Dub (Горького)

Reply to topic
DL-List and Torrent activity
Size:  1.36 GB   |    Registered:  3 years 3 months   |    Completed:  16 times

Seeder not seen: 3 years 3 months

 
   
 
 
Author Message

erzsebet.org ®

Longevity: 3 years 2 months

Posts: 47596

Post 02-Dec-2017 16:21

[Quote]

Дело Маттеи / Il caso Mattei [Советская прокатная копия]- Страна: Италия
Жанр: криминальная драма
Год выпуска: 1972
Продолжительность: 01:25:08-Перевод: Профессиональный (дублированный) - Киностудия им. М. Горького
Субтитры: нет-Режиссер: Франческо Рози / Francesco Rosi
В ролях: Джан Мария Волонте, Луиджи Скварцина, Джанфранко Омбуен, Эдда Ферронао, Аккурсио Ди Лео, Джузеппе Ло Прести, Альдо Барберито, Дарио Микаэлис, Питер Болдуин, Франко Грациози, Элио Йотта, Лучано Колитти, Теренцио Кордова, Камилло Милли, Жан Ружель, Витторио Фанфони, Феличе Фулькигнони, Фурио Коломбо, Блайзе Моррисси, Алессио Бауме, Сальво Ликата, Сенуччио Бенелли, Франческо Рози, Ренато Романо...- | Релиз: -Описание: Этот фильм, реставрирующий на экране события, волновавшие Италию в конце 1940-х - начале 1950-х годов, рассказывает о судьбе нефте-метанового концерна Энрико Маттеи. Энергичный и предприимчивый человек, Энрико Маттеи свою жизнь посвятил одной цели: Италия должна самостоятельно освоить богатство своих земель. Маттеи добился блестящих результатов в разработке и добыче итальянской нефти, газа и других природных ресурсов, но его деятельность натолкнулась на сопротивление иностранных монополий и их итальянских прислужников. И он погиб в авиационной катастрофе, которая подстроена его врагами.-Семпл: http://sendfile.su/1359417-Тип релиза: Screener
Контейнер: AVI
Видео: 704x400 (1.76:1), 25 fps, XviD build 50 ~2029 kbps avg, 0.29 bit/pixel
Аудио: Русский, 48 kHz, AC3 Dolby Digital, 2/0 (L,R) ch, ~256 kbps

MediaInfo

General
Complete name : Дело Маттеи 1972 Dub Горького.avi
Format : AVI
Format/Info : Audio Video Interleave
File size : 1.36 GiB
Duration : 1 h 25 min
Overall bit rate : 2 295 kb/s
Writing application : VirtualDubMod 1.5.10.2 (build 2542/release)
Writing library : VirtualDubMod build 2542/release
Video
ID : 0
Format : MPEG-4 Visual
Format profile : Advanced [email protected]
Format settings, BVOP : 2
Format settings, QPel : No
Format settings, GMC : No warppoints
Format settings, Matrix : Default (H.263)
Codec ID : XVID
Codec ID/Hint : XviD
Duration : 1 h 25 min
Bit rate : 2 029 kb/s
Width : 704 pixels
Height : 400 pixels
Display aspect ratio : 16:9
Frame rate : 25.000 FPS
Color space : YUV
Chroma subsampling : 4:2:0
Bit depth : 8 bits
Scan type : Progressive
Compression mode : Lossy
Bits/(Pixel*Frame) : 0.288
Stream size : 1.21 GiB (88%)
Writing library : XviD 1.2.1 (UTC 2008-12-04)
Audio
ID : 1
Format : AC-3
Format/Info : Audio Coding 3
Format settings, Endianness : Big
Codec ID : 2000
Duration : 1 h 25 min
Bit rate mode : Constant
Bit rate : 256 kb/s
Channel(s) : 2 channels
Channel positions : Front: L R
Sampling rate : 48.0 kHz
Frame rate : 31.250 FPS (1536 SPF)
Bit depth : 16 bits
Compression mode : Lossy
Stream size : 156 MiB (11%)
Alignment : Split accross interleaves
Interleave, duration : 40 ms (1.00 video frame)
Interleave, preload duration : 500 ms
Service kind : Complete Main

Описание из "Аннотированного каталога фильмов действующего фонда", 1980г.

[erzsebet.pl].t269.torrent
Torrent: Registered [ 2017-12-02 16:22 ] · 31BAF3EB424AEF2E84CF1BD3DEF5DF7556AFE45A

Download .torrent

Download

14 KB

Status: checked
Completed: 16 times
Size: 1.36 GB
terms.php
[Profile] [PM]
Display posts:    
Reply to topic

Current time is: 07-Mar 23:35

All times are UTC ± 0



You cannot post new topics in this forum
You cannot reply to topics in this forum
You cannot edit your posts in this forum
You cannot delete your posts in this forum
You cannot vote in polls in this forum
You cannot attach files in this forum
You can download files in this forum