Горький рис / Riso amaro (Джузеппе Де Сантис / Giuseppe De Santis) [1949, Италия, драма, Screener] [Советская прокатная копия] Dub (Горького)

DL-List and Torrent activity
Size:  1.49 GB   |    Registered:  2 years 9 months   |    Completed:  16 times
Seeders:  2  
 
   
 
 

erzsebet.org ®

Longevity:
2 years 9 months
Posts:
47596

[Quote] 

Горький рис / Riso amaro [Советская прокатная копия]- Страна: Италия
Жанр: драма
Год выпуска: 1949
Продолжительность: 01:35:37-Перевод: Профессиональный (дублированный) - Киностудия им. М. Горького
Субтитры: нет-Режиссер: Джузеппе Де Сантис / Giuseppe De Santis
В ролях: Витторио Гассман, Дорис Даулинг, Сильвана Мангано, Раф Валлоне, Кекко Риссоне, Нико Пепе, Адриана Сивьери, Лия Корелли, Мария Грация Франчия, Деди Ристори, Анна Маэстри, Мариэмма Барди, Мария Капуццо, Изабелла Ценнаро, Карло Маццарелла, Эрманно Ранди, Антонио Недиани, Мариано Энглен- | Релиз: -Описание: Франческа и Вальтер - преступники из Северной Италии. Чтобы избежать ареста, Франческа присоединяется к группе крестьян, собирающих рис. Вальтер следует за ней в рисовые районы, и вскоре вовлекает крестьян, а также Марко, следящего за порядком, в сложный заговор, включающий грабеж, любовь и даже убийство.-Семпл: http://sendfile.su/1359003-Тип релиза: Screener
Контейнер: AVI
Видео: 640x512 (1.25:1), 25 fps, XviD build 64 ~1962 kbps avg, 0.24 bit/pixel
Аудио: Русский, 48 kHz, AC3 Dolby Digital, 2/0 (L,R) ch, ~256 kbps

MediaInfo

General
Complete name : Горький рис 1949 Dub Горького.avi
Format : AVI
Format/Info : Audio Video Interleave
File size : 1.49 GiB
Duration : 1 h 35 min
Overall bit rate : 2 229 kb/s
Writing application : VirtualDubMod 1.5.10.2 (build 2542/release)
Writing library : VirtualDubMod build 2542/release
Video
ID : 0
Format : MPEG-4 Visual
Format settings, BVOP : 1
Format settings, QPel : No
Format settings, GMC : No warppoints
Format settings, Matrix : Default (H.263)
Codec ID : XVID
Codec ID/Hint : XviD
Duration : 1 h 35 min
Bit rate : 1 963 kb/s
Nominal bit rate : 4 854 kb/s
Width : 640 pixels
Height : 512 pixels
Display aspect ratio : 5:4
Frame rate : 25.000 FPS
Color space : YUV
Chroma subsampling : 4:2:0
Bit depth : 8 bits
Scan type : Progressive
Compression mode : Lossy
Bits/(Pixel*Frame) : 0.240
Stream size : 1.31 GiB (88%)
Writing library : XviD 64
Audio
ID : 1
Format : AC-3
Format/Info : Audio Coding 3
Format settings, Endianness : Big
Codec ID : 2000
Duration : 1 h 35 min
Bit rate mode : Constant
Bit rate : 256 kb/s
Channel(s) : 2 channels
Channel positions : Front: L R
Sampling rate : 48.0 kHz
Frame rate : 31.250 FPS (1536 SPF)
Bit depth : 16 bits
Compression mode : Lossy
Stream size : 175 MiB (11%)
Alignment : Split accross interleaves
Interleave, duration : 40 ms (1.00 video frame)
Interleave, preload duration : 500 ms
Service kind : Complete Main

If your ratio falls below 0.3, you will not be able to download Torrents! More about the rating.

[erzsebet.pl].t271.torrent
Torrent: Registered   [ 2017-12-02 16:22 ]

Download .torrent

Download

15 KB

Status: checked
Completed: 16 times
Size: 1.49 GB
terms.php

#1

02-Dec-2017 16:21

[Profile]  [PM] 
Display posts:    

You cannot post new topics in this forum
You cannot reply to topics in this forum
You cannot edit your posts in this forum
You cannot delete your posts in this forum
You cannot vote in polls in this forum
You cannot attach files in this forum
You can download files in this forum
User agreement
For copyright holders
Advertise on this site

Скачайте на халяву через торрент на трекере erzsebet.pl

!ATTENTION!
The site does not give electronic versions of products, and is engaged only in a collecting and cataloguing of the references sent and published at a forum by our readers. If you are the legal owner of any submitted material and do not wish that the reference to it was in our catalogue, contact us and we shall immediately remove her. Files for an exchange on tracker are given by users of a site, and the administration does not bear the responsibility for their maintenance. The request to not fill in the files protected by copyrights, and also files of the illegal maintenance!