Новые центурионы / The New Centurions (Ричард Флейшер / Richard Fleischer) [1972, США, боевик, криминальная драма, триллер, Telesync > DVD] [Советская прокатная копия] Dub (Мосфильм)

DL-List and Torrent activity
Size:  3.01 GB   |    Registered:  2 years 9 months   |    Completed:  16 times
Seeders:  2  
 
   
 
 

erzsebet.org ®

Longevity:
2 years 9 months
Posts:
47596

[Quote] 

Новые центурионы / The New Centurions [Советская прокатная копия]- Страна: США
Жанр: боевик, криминальная драма, триллер
Год выпуска: 1972
Продолжительность: 01:28:37-Перевод: Профессиональный (дублированный) - Киностудия "Мосфильм"
Субтитры: нет-Режиссер: Ричард Флейшер / Richard Fleischer
В ролях: Джордж К. Скотт, Стейси Кич, Джейн Александр, Скотт Уилсон, Розалинд Кэш, Эрик Эстрада, Клифтон Джеймс, Ричард Е. Кальк, Джеймс Сиккинг, Беверли Хоуп Эткинсон...- | Релиз: -Описание: кранизация одноименного романа Джозефа Уэмбо.
Рой Фелер, как и многие выпускники полицейской академии, идеализирует службу в полиции, но когда он поступает на службу в полицейское управление Лос-Анджелеса, мифы начинают развеиваться один за другим. Работа полицейских в Лос-Анджелесе - это ежедневный подвиг, ежеминутная схватка со смертью, борьба со всеми мыслимыми и немыслимыми проблемами. Для того, чтобы выжить и победить в этой "войне на улицах", мало выучки и чистых помыслов. Адаптироваться к условиям работы Рою помогает опытный ветеран Килвински, готовящийся к выходу на пенсию после долгих лет службы в полиции.-Семпл: http://sendfile.su/1358998-Тип релиза: Telesync
Контейнер: DVD-Video
Видео: 720x576 (4:3) @ 768x576, 25.000 fps, MPEG-2 Video, ~4493 Kbps, 0.433 bits/pixel
Аудио: Русский, 48.0 KHz, AC3, 2 ch, 256 Kbps

DVDInfo

Title: Новые центурионы 1972 Dub Мосфильм
Size: 3.01 Gb ( 3 153 066,00 KBytes ) - DVD-5
Enabled regions: 1, 2, 3, 4, 5, 6, 7, 8
VTS_01 :
Play Length: 01:28:37
Video: PAL 4:3 (720x576) VBR
Audio:
Russian, AC3, 2/0 (L,R) ch, 256 kbps, Delay 0 mSec
Subtitles:
Not specified

MediaInfo

General
Complete name : \Новые центурионы 1972 Dub Мосфильм\VIDEO_TS\VTS_01_1.VOB
Format : MPEG-PS
File size : 1 024 MiB
Duration : 29 min 32 s
Overall bit rate mode : Variable
Overall bit rate : 4 845 kb/s
Video
ID : 224 (0xE0)
Format : MPEG Video
Format version : Version 2
Format profile : [email protected]
Format settings, BVOP : Yes
Format settings, Matrix : Custom
Format settings, GOP : M=3, N=12
Format settings, picture structure : Frame
Duration : 29 min 32 s
Bit rate mode : Variable
Bit rate : 4 493 kb/s
Maximum bit rate : 4 756 kb/s
Width : 720 pixels
Height : 576 pixels
Display aspect ratio : 4:3
Frame rate : 25.000 FPS
Standard : PAL
Color space : YUV
Chroma subsampling : 4:2:0
Bit depth : 8 bits
Scan type : Interlaced
Scan order : Top Field First
Compression mode : Lossy
Bits/(Pixel*Frame) : 0.433
Time code of first frame : 00:00:00:00
Time code source : Group of pictures header
GOP, Open/Closed : Open
GOP, Open/Closed of first frame : Closed
Stream size : 950 MiB (93%)
Audio
ID : 189 (0xBD)-128 (0x80)
Format : AC-3
Format/Info : Audio Coding 3
Format settings, Endianness : Big
Muxing mode : DVD-Video
Duration : 29 min 32 s
Bit rate mode : Constant
Bit rate : 256 kb/s
Channel(s) : 2 channels
Channel positions : Front: L R
Sampling rate : 48.0 kHz
Frame rate : 31.250 FPS (1536 SPF)
Bit depth : 16 bits
Compression mode : Lossy
Stream size : 54.1 MiB (5%)
Service kind : Complete Main
Menu

If your ratio falls below 0.3, you will not be able to download Torrents! More about the rating.

[erzsebet.pl].t272.torrent
Torrent: Registered   [ 2017-12-02 16:22 ]

Download .torrent

Download

16 KB

Status: checked
Completed: 16 times
Size: 3.01 GB
terms.php

#1

02-Dec-2017 16:21

[Profile]  [PM] 
Display posts:    

You cannot post new topics in this forum
You cannot reply to topics in this forum
You cannot edit your posts in this forum
You cannot delete your posts in this forum
You cannot vote in polls in this forum
You cannot attach files in this forum
You can download files in this forum
User agreement
For copyright holders
Advertise on this site

Скачайте на халяву через торрент на трекере erzsebet.pl

!ATTENTION!
The site does not give electronic versions of products, and is engaged only in a collecting and cataloguing of the references sent and published at a forum by our readers. If you are the legal owner of any submitted material and do not wish that the reference to it was in our catalogue, contact us and we shall immediately remove her. Files for an exchange on tracker are given by users of a site, and the administration does not bear the responsibility for their maintenance. The request to not fill in the files protected by copyrights, and also files of the illegal maintenance!