Соломенные псы / Straw Dogs (Сэм Пекинпа / Sam Peckinpah) [1971, Великобритания, США, драма, триллер, VHSRip-AVC] [Fullscreen] MVO (Ракурс по заказу Екатеринбург Арт)

DL-List and Torrent activity
Size:  2.48 GB   |    Registered:  2 years 9 months   |    Completed:  16 times
Seeders:  3  
 
   
 
 

erzsebet.org ®

Longevity:
2 years 9 months
Posts:
47596

[Quote] 

Соломенные псы / Straw Dogs / Fullscreen
Страна: Великобритания, США
Жанр: драма, триллер
Год выпуска: 1971
Продолжительность: 01:51:02
Перевод: Профессиональный (многоголосый закадровый) Ракурс по заказу Екатеринбург Арт
Субтитры: нет
Оригинальная аудиодорожка: нет
Режиссер: Сэм Пекинпа / Sam Peckinpah
В ролях: Дастин Хоффман, Сьюзен Джордж, Питер Вон, Т.П. МакКенна, Дель Хенни, Джим Нортон, Дональд Уэбстер, Кен Хатчинсон, Лен Джонс, Сэлли Томсетт, Роберт Кигэн, Питер Арне, Черина Шер, Колин Уэлланд, Майкл Манделл, Дэвид Уорнер...
Описание: Дэвид Самнер — молодой американский математик, который устал от хаоса, творящегося в колледже, где он преподавал. Дэвид хочет уединиться: вместе с женой Эми он переселяется в новый дом на побережье в одном из городков Англии, где родилась и выросла Эми.
Но жизнь на новом месте не заладилась. Дэвид занят своими исследованиями, Эми же скучно, и она начинает флиртовать с местными мужчинами. Кроме того, появляется напряжённость с соседями, которым новенькие не очень нравятся.
Награды и номинации:
Оскар, 1972 год
Номинация:
Лучший саундтрек к драматическому фильму
Ну не идиоты? Они больше ничего не увидели в фильме?
Доп. информация:
Оцифровка лицензионной VHS из собственной коллекции.
Fullscreen. Правда, абсолютно никчёмный. Для упоротых фанатов FS!
Сэмпл: http://sendfile.su/1358655
Качество видео: VHSRip-AVC
Формат видео: MP4
Видео: AVC, 720х576, 5:4, 25,000 кадров/сек, 3000 Кбит/сек
Аудио: AAC, 64,0 КГц, 192 Кбит/сек, 2.0 (псевдостерео)

MediaInfo

General
Complete name : K:\torrents\Straw Dogs\Straw Dogs.mp4
Format : MPEG-4
Format profile : Base Media
Codec ID : isom (isom/iso2/avc1/mp41)
File size : 2.48 GiB
Duration : 1 h 51 min
Overall bit rate : 3 196 kb/s
Writing application : Lavf57.25.100
Video
ID : 1
Format : AVC
Format/Info : Advanced Video Codec
Format profile : [email protected]
Format settings, CABAC : No
Format settings, RefFrames : 1 frame
Format settings, GOP : M=1, N=50
Codec ID : avc1
Codec ID/Info : Advanced Video Coding
Duration : 1 h 51 min
Bit rate : 3 000 kb/s
Width : 720 pixels
Height : 576 pixels
Display aspect ratio : 5:4
Frame rate mode : Constant
Frame rate : 25.000 FPS
Standard : PAL
Color space : YUV
Chroma subsampling : 4:2:0
Bit depth : 8 bits
Scan type : Progressive
Bits/(Pixel*Frame) : 0.289
Stream size : 2.33 GiB (94%)
Audio
ID : 2
Format : AAC
Format/Info : Advanced Audio Codec
Format profile : LTP
Codec ID : 40
Duration : 1 h 51 min
Bit rate mode : Constant
Bit rate : 192 kb/s
Channel(s) : 2 channels
Channel(s)_Original : 3 channels
Channel positions : Front: L C R
Sampling rate : 64.0 kHz
Frame rate : 62.500 FPS (1024 SPF)
Compression mode : Lossy
Stream size : 150 MiB (6%)
Default : Yes
Alternate group : 1

Скриншот c названием фильма

If your ratio falls below 0.3, you will not be able to download Torrents! More about the rating.

[erzsebet.pl].t274.torrent
Torrent: Registered   [ 2017-12-02 16:22 ]

Download .torrent

Download

13 KB

Status: checked
Completed: 16 times
Size: 2.48 GB
terms.php

#1

02-Dec-2017 16:21

[Profile]  [PM] 
Display posts:    

You cannot post new topics in this forum
You cannot reply to topics in this forum
You cannot edit your posts in this forum
You cannot delete your posts in this forum
You cannot vote in polls in this forum
You cannot attach files in this forum
You can download files in this forum
User agreement
For copyright holders
Advertise on this site

Скачайте на халяву через торрент на трекере erzsebet.pl

!ATTENTION!
The site does not give electronic versions of products, and is engaged only in a collecting and cataloguing of the references sent and published at a forum by our readers. If you are the legal owner of any submitted material and do not wish that the reference to it was in our catalogue, contact us and we shall immediately remove her. Files for an exchange on tracker are given by users of a site, and the administration does not bear the responsibility for their maintenance. The request to not fill in the files protected by copyrights, and also files of the illegal maintenance!