Трудный путь в Александрию / Ice Cold in Alex (Джэй Ли Томпсон /J. Lee Thompson) [1958, Великобритания, военный, драма, HDRip] AVO (Визгунов) + MVO + Sub Eng + Original Eng

Reply to topic
DL-List and Torrent activity
Size:  2.36 GB   |    Registered:  3 years 3 months   |    Completed:  16 times

Seeder not seen: 3 years 3 months

 
   
 
 
Author Message

erzsebet.org ®

Longevity: 3 years 2 months

Posts: 47596

Post 02-Dec-2017 16:21

[Quote]

Трудный путь в Александрию / Ice Cold in Alex
Страна: Великобритания
Жанр: военный, драма
Год выпуска: 1958
Продолжительность: 2:10:13
Перевод: Авторский (одноголосый закадровый) Визгунов
Перевод 2: Профессиональный (многоголосый закадровый)
Субтитры: английские (отдельным файлом)
Оригинальная аудиодорожка: английский (отдельным файлом)
Режиссер: Джэй Ли Томпсон / J. Lee Thompson
В ролях: Джон Миллс, Силвия Симс, Энтони Куэйл, Гарри Эндрюс
Описание: В 1942 году Средиземноморское побережье Северной Африки было мало похоже на курорт. Немецкая армия беспрестанно бомбила и корабли, и сухопутные силы британской армии. Испугавшись бомбежки, две молоденькие медсестры, только прибывшие на фронт, отстают от своего корабля. Капитан Энсон получает приказ на грузовике доставить девушек в Александрию. Путь будет трудным и полным опасностей...
Доп. информация: Исходник http://erzsebet.org/forum/viewtopic.php?t=4262307 (с благодарностью alinto).
В дорожке с многоголосым переводом было несколько пропусков. Вставил туда перевод Сергея Визгунова. Пример такой вставки можно услышать в конце сэмпла.

Вставки в многоголосый перевод

0:00:33 - 0:00:58
0:09:00 - 0:10:30
0:21:14 - 0:21:27
0:46:07 - 0:49:25
0:55:01 - 0:56:36
0:58:22 - 1:00:23
1:12:03 - 1:12:25
1:22:36 - 1:23:43
1:37:05 - 1:37:18
2:08:16 - 2:08:32
Сэмпл: http://multi-up.com/1166523
Качество видео: HDRip
Формат видео: AVI
Видео: XviD, 720x432 (5:3), 24 fps, ~2000 kbps
Аудио: AC3, 48 khz, 2 ch, 192 kbps - Сергей Визгунов
Аудио 2: AC3, 48 khz, 2 ch, 192 kbps - MVO
Аудио 3: AC3, 48 khz, 2 ch, 192 kbps - english (отдельным файлом)
Формат субтитров: softsub (SRT)

MediaInfo

Общее
Полное имя : D:\Torrents\Ice Cold in Alex [HDRip 1958]\Ice Cold in Alex [HDRip 1958].avi
Формат : AVI
Формат/Информация : Audio Video Interleave
Профиль формата : OpenDML
Размер файла : 2,19 Гбайт
Продолжительность : 2 ч. 10 м.
Общий поток : 2405 Кбит/сек
Программа кодирования : VirtualDubMod 1.5.10.2 (build 2540/release)
Библиотека кодирования : VirtualDubMod build 2540/release
Видео
Идентификатор : 0
Формат : MPEG-4 Visual
Профиль формата : Advanced [email protected]
Параметр BVOP формата : 1
Параметр QPel формата : Нет
Параметр GMC формата : Без точки перехода
Параметр матрицы формата : Default (MPEG)
Идентификатор кодека : XVID
Идентификатор кодека/Подсказка : XviD
Продолжительность : 2 ч. 10 м.
Битрейт : 2004 Кбит/сек
Ширина : 720 пикселей
Высота : 432 пикселя
Соотношение сторон : 5:3
Частота кадров : 24,000 кадра/сек
Цветовое пространство : YUV
Субдискретизация насыщенности : 4:2:0
Битовая глубина : 8 бит
Тип развёртки : Прогрессивная
Метод сжатия : С потерями
Бит/(Пиксели*Кадры) : 0.268
Размер потока : 1,82 Гбайт (83%)
Библиотека кодирования : XviD 1.2.1 (UTC 2008-12-04)
Аудио #1
Идентификатор : 1
Формат : AC-3
Формат/Информация : Audio Coding 3
Параметр Endianness формата : Big
Идентификатор кодека : 2000
Продолжительность : 2 ч. 10 м.
Вид битрейта : Постоянный
Битрейт : 192 Кбит/сек
Каналы : 2 канала
Расположение каналов : Front: L R
Частота : 48,0 КГц
Частота кадров : 31,250 кадров/сек (1536 spf)
Битовая глубина : 16 бит
Метод сжатия : С потерями
Размер потока : 179 Мбайт (8%)
Выравнивание : Разделение по промежуткам
Продолжительность промежутка : 42 мс. (1,00 видеокадр)
Время предзагрузки промежутка : 500 мс.
ServiceKind/String : Complete Main
Аудио #2
Идентификатор : 2
Формат : AC-3
Формат/Информация : Audio Coding 3
Параметр Endianness формата : Big
Идентификатор кодека : 2000
Продолжительность : 2 ч. 10 м.
Вид битрейта : Постоянный
Битрейт : 192 Кбит/сек
Каналы : 2 канала
Расположение каналов : Front: L R
Частота : 48,0 КГц
Частота кадров : 31,250 кадров/сек (1536 spf)
Битовая глубина : 16 бит
Метод сжатия : С потерями
Размер потока : 179 Мбайт (8%)
Выравнивание : Разделение по промежуткам
Продолжительность промежутка : 42 мс. (1,00 видеокадр)
Время предзагрузки промежутка : 500 мс.
ServiceKind/String : Complete Main

Скриншот c названием фильма

Скриншоты

[erzsebet.pl].t277.torrent
Torrent: Registered [ 2017-12-02 16:22 ] · 21936AB0DE2212B29B877271DA3B3727DB9A61A8

Download .torrent

Download

13 KB

Status: checked
Completed: 16 times
Size: 2.36 GB
terms.php
[Profile] [PM]
Display posts:    
Reply to topic

Current time is: 07-Mar 21:17

All times are UTC ± 0



You cannot post new topics in this forum
You cannot reply to topics in this forum
You cannot edit your posts in this forum
You cannot delete your posts in this forum
You cannot vote in polls in this forum
You cannot attach files in this forum
You can download files in this forum