Марианна / Marianne (Роберт З. Леонард / Robert Z. Leonard) [1929, США, драма, мелодрама, мюзикл, DVDRip] VO + Original Eng

DL-List and Torrent activity
Size:  1.61 GB   |    Registered:  2 years 9 months   |    Completed:  16 times
Seeders:  3  
 
   
 
 

erzsebet.org ®

Longevity:
2 years 9 months
Posts:
47596

[Quote] 

Марианна / Marianne
Страна: США
Студии: Cosmopolitan Productions, Metro-Goldwyn-Mayer (MGM)
Жанр: драма, мелодрама, мюзикл
Год выпуска: 1929
Продолжительность: 01:51:19
Перевод: Одноголосый закадровый - Алексей Яковлев
Субтитры: русские (на песни и на несколько фраз на французском)
Оригинальная аудиодорожка: английский
Режиссер: Роберт З. Леонард / Robert Z. Leonard
Композиторы: Уильям Экст / William Axt,
Чарльз Максвелл / Charles Maxwell

В ролях: Мэрион Дэвис / Marion Davies ... Marianne
Джордж Бакстер / George Baxter ... André
Лоуренс Грэй / Lawrence Gray ... Stagg
Клифф Эдвардс / Cliff Edwards ... Soapy
Бенни Рубин / Benny Rubin ... Sam
Скотт Колк / Scott Kolk ... Lieut. Frane
Роберт Идисон / Robert Edeson ... The General
Эмиль Шотар / Emile Chautard ... Père Joseph
Эрни Александр / Ernie Alexander ... One of the Doughboys, в титрах не указан
Оскар Апфель / Oscar Apfel ... Maj. Russart, в титрах не указан
Джон Кэрролл / John Carroll ... Doughboy, в титрах не указан

Описание: Во время Первой мировой войны французская девушка Марианна провожает на фронт своего жениха Андре, которого любит с детства. Девушка обещает ждать своего возлюбленного. Скоро в городок, где живёт Марианна, прибывают американские солдаты. Марианна знакомится с американцем Стэггом и между ними возникает сильное взаимное чувство. Но в городок возвращается раненый Андре и Марианна, движимая чувством долга и сострадания, принимает решение расстаться со Стэггом...--Фильмография Мэрион Дэвис--БОЛЬШОЕ СПАСИБО:
Работа со звуком, создание русских субтитров на песни (по переводу Алексея Яковлева) и реавторинг DVD - AlekceyR76
Перевод и озвучивание фильма - Алексей Яковлев
Также Большое Спасибо всем, кто принял участие в появлении перевода и озвучки к этому фильму:
Магда, Lafajet, jasenka, елена 22, yanaelisa, HippopotamusIV, voostorg, cementit, leoder, sindzi, sapog1960, Ugo927, Nmaska, duum100, GalaUkr
--Сэмпл: https://www.sendspace.com/file/gt51hm
Качество видео: DVDRip
Формат видео: AVI
Видео: XviD, 576x480 (1.20:1), 23.976 fps, 1672 Kbps
Аудио 1: AC3, 48.0 KHz, 2 ch., 192 Kbps (русский одноголосый закадровый перевод) - Алексей Яковлев
Аудио 2: AC3, 48.0 KHz, 2 ch., 192 Kbps (оригинальная английская звуковая дорожка, лежит отдельно)
Как подключить альтернативную (внешнюю) звуковую дорожку к видео при просмотре?
Как добавить отдельно лежащую аудиодорожку в .avi - файл? (см. "Программы для работы с контейнерами" - > "VirtualDub" или "AVI-Mux")

MediaInfo

AVI-файл:
Общее
Полное имя : I:\раздачи\Marianne 1929\Marianne.avi
Формат : AVI
Формат/Информация : Audio Video Interleave
Размер файла : 1,46 Гбайт
Продолжительность : 1 ч. 51 м.
Общий поток : 1873 Кбит/сек
Программа кодирования : VirtualDubMod 1.5.10.3 | www.virtualdub-fr.org || (build 2550/release)
Библиотека кодирования : VirtualDubMod build 2550/release
Видео
Идентификатор : 0
Формат : MPEG-4 Visual
Профиль формата : Advanced [email protected]
Параметр BVOP формата : 2
Параметр QPel формата : Нет
Параметр GMC формата : Без точки перехода
Параметр матрицы формата : Default (H.263)
Идентификатор кодека : DX50
Идентификатор кодека/Подсказка : DivX 5
Продолжительность : 1 ч. 51 м.
Битрейт : 1672 Кбит/сек
Ширина : 576 пикселей
Высота : 480 пикселей
Соотношение сторон : 1,200
Частота кадров : 23,976 (24000/1001) кадра/сек
Цветовое пространство : YUV
Субдискретизация насыщенности : 4:2:0
Битовая глубина : 8 бит
Тип развёртки : Прогрессивная
Метод сжатия : С потерями
Бит/(Пиксели*Кадры) : 0.252
Размер потока : 1,30 Гбайт (89%)
Библиотека кодирования : XviD 73
Аудио
Идентификатор : 1
Формат : AC-3
Формат/Информация : Audio Coding 3
Параметр Endianness формата : Big
Идентификатор кодека : 2000
Продолжительность : 1 ч. 51 м.
Вид битрейта : Постоянный
Битрейт : 192 Кбит/сек
Каналы : 2 канала
Расположение каналов : Front: L R
Частота : 48,0 КГц
Частота кадров : 31,250 кадров/сек (1536 spf)
Битовая глубина : 16 бит
Метод сжатия : С потерями
Размер потока : 153 Мбайт (10%)
Выравнивание : Разделение по промежуткам
Продолжительность промежутка : 42 мс. (1,00 видеокадр)
Время предзагрузки промежутка : 500 мс.
ServiceKind/String : Complete Main
английская оригинальная звуковая дорожка, лежит отдельно:
Общее
Полное имя : I:\раздачи\Marianne 1929\Marianne.ENG.ac3
Формат : AC-3
Формат/Информация : Audio Coding 3
Размер файла : 153 Мбайт
Продолжительность : 1 ч. 51 м.
Режим общего битрейта : Постоянный
Общий поток : 192 Кбит/сек
Аудио
Формат : AC-3
Формат/Информация : Audio Coding 3
Параметр Endianness формата : Big
Продолжительность : 1 ч. 51 м.
Вид битрейта : Постоянный
Битрейт : 192 Кбит/сек
Каналы : 2 канала
Расположение каналов : Front: L R
Частота : 48,0 КГц
Частота кадров : 31,250 кадров/сек (1536 spf)
Битовая глубина : 16 бит
Метод сжатия : С потерями
Размер потока : 153 Мбайт (100%)
ServiceKind/String : Complete Main

If your ratio falls below 0.3, you will not be able to download Torrents! More about the rating.

[erzsebet.pl].t278.torrent
Torrent: Registered   [ 2017-12-02 16:22 ]

Download .torrent

Download

17 KB

Status: checked
Completed: 16 times
Size: 1.61 GB
terms.php

#1

02-Dec-2017 16:21

[Profile]  [PM] 
Display posts:    

You cannot post new topics in this forum
You cannot reply to topics in this forum
You cannot edit your posts in this forum
You cannot delete your posts in this forum
You cannot vote in polls in this forum
You cannot attach files in this forum
You can download files in this forum
User agreement
For copyright holders
Advertise on this site

Скачайте на халяву через торрент на трекере erzsebet.pl

!ATTENTION!
The site does not give electronic versions of products, and is engaged only in a collecting and cataloguing of the references sent and published at a forum by our readers. If you are the legal owner of any submitted material and do not wish that the reference to it was in our catalogue, contact us and we shall immediately remove her. Files for an exchange on tracker are given by users of a site, and the administration does not bear the responsibility for their maintenance. The request to not fill in the files protected by copyrights, and also files of the illegal maintenance!