В аду / Сестры в камере: Загнанные за решетку / Cellblock Sisters: Banished Behind Bars (Генри Чарр / Henri Charr) [1995, США, драма, криминал, DVDRip] AVO (Пётр Карцев) + Original Eng

DL-List and Torrent activity
Size:  1.11 GB   |    Registered:  2 years 9 months   |    Completed:  16 times
Seeders:  1  
 
   
 
 

erzsebet.org ®

Longevity:
2 years 9 months
Posts:
47596

[Quote] 

В аду / Сестры в камере: Загнанные за решетку / Cellblock Sisters: Banished Behind Bars
Страна: США
Жанр: драма, криминал
Год выпуска: 1995
Продолжительность: 01:32:41
Перевод: Авторский (одноголосый закадровый) Пётр Карцев
Субтитры: нет
Оригинальная аудиодорожка: английский
Режиссер: Генри Чарр / Henri Charr
В ролях: Энни Вуд, Гэйл Харрис, Дженна Боднар, Дин Хауэлл, Шервин Эйс Росс, Джэми Донахью, Доминик Конолд, Кристи Энджел, Анита Линн, Ред Хортон...
Описание:
Проданные в детстве своим отцом-неудачником, сестры Эйприл и Мэй выросли разными людьми: Эйприл возглавила банду байкеров, контролирующую южный Лос-Анджелес, а Мэй получила воспитание в обычной семье. Но в одном они были похожи — они не могли предать.
И когда после их первой за эти годы встречи Мэй становится свидетелем убийства, совершенного сестрой, и попадает за это в тюрьму, Эйприл делает все возможное, чтобы спасти Мэй. Тем более, когда узнает, что той грозят расправой люди из контролирующей банды…
Доп. информация: Оцифровка перевода Карцева - cinemasonar. Синхронизация звука - Dreven.
Сэмпл: http://sendfile.su/1381300
Качество видео: DVDRip
Формат видео: AVI
Видео: 720x536 (1.34:1), 29.970 fps, XviD Final 1.0.1 (build 35) ~1372 kbps avg, 0.12 bit/pixel
Аудио 1: 48 kHz, AC3 Dolby Digital, 2/0 (L,R) ch, ~192 kbps - Пётр Карцев
Аудио 2: 44.100 kHz, MPEG Layer 3, 2 ch, ~128.00 kbps avg Eng

MediaInfo

General
Complete name : C:\Banished Behind Bars.avi
Format : AVI
Format/Info : Audio Video Interleave
File size : 1.11 GiB
Duration : 1 h 32 min
Overall bit rate : 1 711 kb/s
Writing application : VirtualDubMod 1.5.10.3 (build 2550/release)
Writing library : VirtualDubMod build 2550/release
Video
ID : 0
Format : MPEG-4 Visual
Format profile : [email protected]
Format settings : BVOP2
Format settings, BVOP : 2
Format settings, QPel : No
Format settings, GMC : No warppoints
Format settings, Matrix : Default (H.263)
Codec ID : XVID
Codec ID/Hint : XviD
Duration : 1 h 32 min
Bit rate : 1 373 kb/s
Width : 720 pixels
Height : 536 pixels
Display aspect ratio : 4:3
Frame rate : 29.970 (30000/1001) FPS
Color space : YUV
Chroma subsampling : 4:2:0
Bit depth : 8 bits
Scan type : Progressive
Compression mode : Lossy
Bits/(Pixel*Frame) : 0.119
Stream size : 910 MiB (80%)
Writing library : XviD 1.0.1 (UTC 2004-06-05)
Audio #1
ID : 1
Format : AC-3
Format/Info : Audio Coding 3
Codec ID : 2000
Duration : 1 h 32 min
Bit rate mode : Constant
Bit rate : 192 kb/s
Channel(s) : 2 channels
Channel positions : Front: L R
Sampling rate : 48.0 kHz
Frame rate : 31.250 FPS (1536 SPF)
Bit depth : 16 bits
Compression mode : Lossy
Stream size : 127 MiB (11%)
Alignment : Split accross interleaves
Interleave, duration : 33 ms (1.00 video frame)
Interleave, preload duratio : 500 ms
Title : Пётр Карцев
Service kind : Complete Main
Audio #2
ID : 2
Format : MPEG Audio
Format version : Version 1
Format profile : Layer 3
Codec ID : 55
Codec ID/Hint : MP3
Duration : 1 h 32 min
Bit rate mode : Constant
Bit rate : 128 kb/s
Channel(s) : 2 channels
Sampling rate : 44.1 kHz
Compression mode : Lossy
Stream size : 84.9 MiB (7%)
Alignment : Split accross interleaves
Interleave, duration : 33 ms (1.00 video frame)
Interleave, preload duratio : 500 ms

Скриншоты

If your ratio falls below 0.3, you will not be able to download Torrents! More about the rating.

[erzsebet.pl].t28.torrent
Torrent: Registered   [ 2017-12-02 15:58 ]

Download .torrent

Download

12 KB

Status: checked
Completed: 16 times
Size: 1.11 GB
terms.php

#1

02-Dec-2017 15:58

[Profile]  [PM] 
Display posts:    

You cannot post new topics in this forum
You cannot reply to topics in this forum
You cannot edit your posts in this forum
You cannot delete your posts in this forum
You cannot vote in polls in this forum
You cannot attach files in this forum
You can download files in this forum
User agreement
For copyright holders
Advertise on this site

Скачайте на халяву через торрент на трекере erzsebet.pl

!ATTENTION!
The site does not give electronic versions of products, and is engaged only in a collecting and cataloguing of the references sent and published at a forum by our readers. If you are the legal owner of any submitted material and do not wish that the reference to it was in our catalogue, contact us and we shall immediately remove her. Files for an exchange on tracker are given by users of a site, and the administration does not bear the responsibility for their maintenance. The request to not fill in the files protected by copyrights, and also files of the illegal maintenance!