Бабетта идет на войну / Babette s'en va-t-en guerre (Кристиан Жак / Christian Jacq) [1959, Франция, военный, комедия, BDRip] Dub (Союзмультфильм)

Reply to topic
DL-List and Torrent activity
Size:  1.44 GB   |    Registered:  3 years 3 months   |    Completed:  16 times

Seeder not seen: 3 years 3 months

 
   
 
 
Author Message

erzsebet.org ®

Longevity: 3 years 2 months

Posts: 47596

Post 02-Dec-2017 16:21

[Quote]

Бабетта идет на войну / Babette s'en va-t-en guerre
Страна: Франция
Жанр: военный, комедия
Год выпуска: 1959
Продолжительность: 01:43:00
Перевод: Профессиональный (дублированный) - Киностудия "Союзмультфильм"
Субтитры: нет
Режиссер: Кристиан Жак / Christian Jacq
В ролях: Бриджит Бардо, Жак Шаррье, Роналд Хауард, Майкл Крэймер, Рене Хавар, Мона Гойя, Вивиан Госсе, Робер Берри, Франсуаз Белин, Жак Хиллинг, Жан-Пьер Золя, Франсис Бланш, Пьер Бертен, Ив Венсан
Описание: В начале Второй мировой войны юная и прелестная француженка Бабетта устраивается на работу в бордель. Но все его обитательницы в спешке собирают пожитки и эвакуируются в Англию. Там Бабетта попадает в штаб британской разведки, уже в качестве секретарши, а потом и во вражеский тыл. Ее ждут новая, не менее интересная работа, новые знакомства и даже любовь. Франция покоряется немцам и освободить родину может только великолепная Бабетта. И ей удается не только очаровать весь боевой состав армии, от рядовых до офицеров, но и внести свой, не совсем обычный, но от этого не менее весомый вклад в борьбу с фашистами.
Доп. информация: Дорожка с Dub, из релиза от xfiles, синхронизирована ale_x2008 при помощи Adobe Audition, Sony Vegas и VirtualDubMod. За что ему огромная благодарность.
Внимание перезалив : -- Заменена дорожка и отсинхронена под данный релиз
Сэмпл: http://multi-up.com/1166279
Качество видео: BDRip (Исходник Babette sen va-t-en guerre.mkv / KinoZal)
Формат видео: AVI
Видео: XviD 73, 720x304, (2,35:1), 24,000 fps, 1801 Кбит/с, 0.34 bit/pixel
Аудио: Русский (АС3, 2 ch (Front: L R), 48,0 KHz, 192 Kbps)

MediaInfo

Общее
Полное имя : F:\Видеофильмы\В и д е о\Бабетта идет на войну (военный,комедия 1959 год).avi
Формат : AVI
Формат/Информация : Audio Video Interleave
Размер файла : 1,44 Гбайт
Продолжительность : 1 ч. 43 м.
Общий поток : 2002 Кбит/сек
Программа кодирования : VirtualDubMod 1.5.10.2 (build 2540/release)
Библиотека кодирования : VirtualDubMod build 2540/release
Видео
Идентификатор : 0
Формат : MPEG-4 Visual
Профиль формата : Advanced [email protected]
Параметр BVOP формата : 2
Параметр QPel формата : Нет
Параметр GMC формата : Без точки перехода
Параметр матрицы формата : Выборочная
Идентификатор кодека : XVID
Идентификатор кодека/Подсказка : XviD
Продолжительность : 1 ч. 43 м.
Битрейт : 1801 Кбит/сек
Ширина : 720 пикселей
Высота : 304 пикселя
Соотношение сторон : 2,35:1
Частота кадров : 24,000 кадра/сек
Цветовое пространство : YUV
Субдискретизация насыщенности : 4:2:0
Битовая глубина : 8 бит
Тип развёртки : Прогрессивная
Метод сжатия : С потерями
Бит/(Пиксели*Кадры) : 0.343
Размер потока : 1,30 Гбайт (90%)
Библиотека кодирования : XviD 73
Аудио
Идентификатор : 1
Формат : AC-3
Формат/Информация : Audio Coding 3
Расширение режима : CM (complete main)
Параметр Endianness формата : Big
Идентификатор кодека : 2000
Продолжительность : 1 ч. 43 м.
Вид битрейта : Постоянный
Битрейт : 192 Кбит/сек
Каналы : 2 канала
Расположение каналов : Front: L R
Частота : 48,0 КГц
Частота кадров : 31,250 кадров/сек (1536 spf)
Метод сжатия : С потерями
Размер потока : 141 Мбайт (10%)
Выравнивание : Разделение по промежуткам
Продолжительность промежутка : 42 мс. (1,00 видеокадр)
Время предзагрузки промежутка : 500 мс.

Скриншот c названием фильма

Скриншоты

[erzsebet.pl].t280.torrent
Torrent: Registered [ 2017-12-02 16:22 ] · 28E450B8BBF097A9F22D8CDC45E0D3ABA782CAD1

Download .torrent

Download

15 KB

Status: checked
Completed: 16 times
Size: 1.44 GB
terms.php
[Profile] [PM]
Display posts:    
Reply to topic

Current time is: 08-Mar 01:04

All times are UTC ± 0



You cannot post new topics in this forum
You cannot reply to topics in this forum
You cannot edit your posts in this forum
You cannot delete your posts in this forum
You cannot vote in polls in this forum
You cannot attach files in this forum
You can download files in this forum